查看: 8|回復: 0
打印 上一主題 下一主題

[劇情片] 愛的故事續集/奧利佛的故事 Olivers.Story.1978.1080p.AMZN.WEBRip.DDP2.0.x264-SiGMA 8.98GB

[復制鏈接]

 成長值: 3410

級別:資源管理組

注冊時間
2017-10-20
最后登錄
2019-12-9
聽眾
1
收聽
0
主題
88361
藍光幣
69732 枚
貢獻
12723 點
跳轉到指定樓層
樓主
發表于 2019-11-15 22:35:53 | 只看該作者 |只看大圖 回帖獎勵 |倒序瀏覽 |閱讀模式


譯  名 愛的故事續集 / 奧利佛的故事
片  名 Oliver's Story
年  代 1978
產  地 美國
類  別 劇情 / 愛情
語  言 英語
上映日期 1978-12-15
IMDb評分  4.5/10 from 762 users
IMDb鏈接  https://www.imdb.com/title/tt0078024
豆瓣評分 6.1/10 from 119 users
豆瓣鏈接 https://movie.douban.com/subject/1306423/
片  長 91 分鐘
導  演 John Korty
編  劇 Erich Segal / John Korty
主  演 Ryan O'Neal
       Candice Bergen
       Nicola Pagett
       Edward Binns
       Ray Milland


標  簽 美國電影 | 美國 | 愛情 | 1978 | 經典愛情 | Sonychen | HBO | 續集

簡  介  

  奧立佛在妻子死后一直意志消沉,直至遇到了一位爽朗獨立的事業女性才重燃愛火,可惜兩人對“人道主義"所抱的立場完全不同,結果還是忍痛分手。本片編導企圖將“社會關懷"帶進單純的愛情故事之中,使它變得更有深度。片中有不少在香港拍攝的地下工廠作業情形,但避免不了外國人看中國問題的“隔靴搔癢"毛病。
  1. Video
  2. ID                                       : 1
  3. Format                                   : AVC
  4. Format/Info                              : Advanced Video Codec
  5. Format profile                           : [email protected]
  6. Format settings                          : CABAC / 4 Ref Frames
  7. Format settings, CABAC                   : Yes
  8. Format settings, Reference frames        : 4 frames
  9. Codec ID                                 : V_MPEG4/ISO/AVC
  10. Duration                                 : 1 h 30 min
  11. Bit rate mode                            : Variable
  12. Bit rate                                 : 14.0 Mb/s
  13. Maximum bit rate                         : 15.0 Mb/s
  14. Width                                    : 1 920 pixels
  15. Height                                   : 1 080 pixels
  16. Display aspect ratio                     : 16:9
  17. Frame rate mode                          : Constant
  18. Frame rate                               : 23.976 (24000/1001) FPS
  19. Color space                              : YUV
  20. Chroma subsampling                       : 4:2:0
  21. Bit depth                                : 8 bits
  22. Scan type                                : Progressive
  23. Bits/(Pixel*Frame)                       : 0.281
  24. Stream size                              : 8.84 GiB (98%)
  25. Default                                  : Yes
  26. Forced                                   : No
  27. Color range                              : Limited
  28. Color primaries                          : BT.709
  29. Transfer characteristics                 : BT.709
  30. Matrix coefficients                      : BT.709

  31. Audio
  32. ID                                       : 2
  33. Format                                   : E-AC-3
  34. Format/Info                              : Enhanced AC-3
  35. Commercial name                          : Dolby Digital Plus
  36. Codec ID                                 : A_EAC3
  37. Duration                                 : 1 h 30 min
  38. Bit rate mode                            : Constant
  39. Bit rate                                 : 224 kb/s
  40. Channel(s)                               : 2 channels
  41. Channel layout                           : L R
  42. Sampling rate                            : 48.0 kHz
  43. Frame rate                               : 31.250 FPS (1536 SPF)
  44. Compression mode                         : Lossy
  45. Stream size                              : 145 MiB (2%)
  46. Language                                 : English
  47. Service kind                             : Complete Main
  48. Default                                  : Yes
  49. Forced                                   : No

  50. Text
  51. ID                                       : 3
  52. Format                                   : UTF-8
  53. Codec ID                                 : S_TEXT/UTF8
  54. Codec ID/Info                            : UTF-8 Plain Text
  55. Duration                                 : 1 h 26 min
  56. Bit rate                                 : 74 b/s
  57. Count of elements                        : 1422
  58. Stream size                              : 47.0 KiB (0%)
  59. Language                                 : English
  60. Default                                  : No
  61. Forced                                   : No
復制代碼









分享到:  QQ好友和群QQ好友和群
收藏收藏
VIP會員免費任意下載本站所有資源!---點擊開通
回復

使用道具 舉報

懶得打字嘛,點擊右側快捷回復 【右側內容,后臺自定義】
您需要登錄后才可以回帖 登錄 | 立即注冊

本版積分規則

QQ|Archiver|手機版|小黑屋| 中國高清網 |網站地圖

GMT+8, 2019-12-10 11:08 , Processed in 0.189691 second(s), 36 queries .

Powered by HDchina X3.4

Copyright 2017-2019©HDchina.All right reserved

返回頂部 聯系我們
9肖30码图2019