查看: 16|回復: 0
打印 上一主題 下一主題

[劇情片] 毒藥/愛情砒霜 Poison.1991.1080p.AMZN.WEBRip.DDP2.0.x264-monkee 8.66GB

[復制鏈接]

 成長值: 3410

級別:資源管理組

注冊時間
2017-10-20
最后登錄
2019-12-9
聽眾
1
收聽
0
主題
88361
藍光幣
69720 枚
貢獻
12723 點
跳轉到指定樓層
樓主
發表于 2019-11-15 22:31:27 | 只看該作者 |只看大圖 回帖獎勵 |倒序瀏覽 |閱讀模式


譯  名 毒藥 / 愛情砒霜
片  名 Poison
年  代 1991
產  地 美國
類  別 劇情 / 科幻 / 恐怖 / 同性
語  言 英語
上映日期 1991-04-05
IMDb評分  6.5/10 from 3573 users
IMDb鏈接  https://www.imdb.com/title/tt0102687
豆瓣評分 7.3/10 from 735 users
豆瓣鏈接 https://movie.douban.com/subject/1292499/
片  長 85 分鐘
導  演 Todd Haynes
編  劇 Todd Haynes
主  演 Edith Meeks
       Millie White
       Buck Smith


標  簽 美國 | ToddHaynes | 同志 | 1991 | 美國電影 | 同性 | 劇情 | Todd_Haynes

簡  介  

  愛情可以醇如佳釀,也可毒如砒霜。《毒藥》要講的就是三個離經叛道的荒誕故事。《英雄》中的英雄并非什么占士邦或鐵金剛式打不死,而是一個乳臭未乾的黃毛小子。都說不可小覤新新人類的力量──年僅七歲的小主角槍殺無賴老豆,絕不手震。《可怖》向50年代經典恐怖科幻片《變蠅人魔》致敬。科學家成功研究出一個驚世實驗,把人類性欲化作液體保存。三個短篇中最引起爭議的,是描繪監獄另類春光的《兇毛》。一個終生囚犯不能自拔的迷戀囚友,自虐被虐共冶一爐,引人入「性」。粗獷暴烈的場面赤裸裸地沖擊觀眾底線。三段人生,三種手法。《紫醉金迷》導演托特海恩斯就是憑本片奪得1991年辛丹士影展大獎,一鳴驚人。

獲獎情況  

  第41屆柏林國際電影節(1991)
  泰迪熊獎 最佳電影 托德·海因斯
  1. Video
  2. ID                                       : 1
  3. Format                                   : AVC
  4. Format/Info                              : Advanced Video Codec
  5. Format profile                           : [email protected]
  6. Format settings                          : CABAC / 4 Ref Frames
  7. Format settings, CABAC                   : Yes
  8. Format settings, Reference frames        : 4 frames
  9. Codec ID                                 : V_MPEG4/ISO/AVC
  10. Duration                                 : 1 h 25 min
  11. Bit rate mode                            : Variable
  12. Bit rate                                 : 14.3 Mb/s
  13. Maximum bit rate                         : 15.0 Mb/s
  14. Width                                    : 1 920 pixels
  15. Height                                   : 1 080 pixels
  16. Display aspect ratio                     : 16:9
  17. Frame rate mode                          : Constant
  18. Frame rate                               : 23.976 (24000/1001) FPS
  19. Color space                              : YUV
  20. Chroma subsampling                       : 4:2:0
  21. Bit depth                                : 8 bits
  22. Scan type                                : Progressive
  23. Bits/(Pixel*Frame)                       : 0.287
  24. Stream size                              : 8.52 GiB (98%)
  25. Writing library                          : x264 core 148 r2623 d5b2374
  26. Encoding settings                        : cabac=1 / ref=4 / deblock=1:-1:-1 / analyse=0x3:0x133 / me=umh / subme=9 / psy=1 / psy_rd=1.00:0.15 / mixed_ref=1 / me_range=24 / chroma_me=1 / trellis=2 / 8x8dct=1 / cqm=0 / deadzone=21,11 / fast_pskip=1 / chroma_qp_offset=-3 / threads=34 / lookahead_threads=5 / sliced_threads=0 / nr=150 / decimate=1 / interlaced=0 / bluray_compat=0 / constrained_intra=0 / bframes=8 / b_pyramid=2 / b_adapt=2 / b_bias=0 / direct=3 / weightb=1 / open_gop=0 / weightp=2 / keyint=120 / keyint_min=61 / scenecut=0 / intra_refresh=0 / rc_lookahead=120 / rc=crf / mbtree=1 / crf=18.0 / qcomp=0.60 / qpmin=0 / qpmax=69 / qpstep=4 / vbv_maxrate=15000 / vbv_bufsize=31250 / crf_max=0.0 / nal_hrd=vbr / filler=0 / ip_ratio=1.40 / aq=3:1.00
  27. Default                                  : Yes
  28. Forced                                   : No
  29. Color range                              : Limited
  30. Color primaries                          : BT.709
  31. Transfer characteristics                 : BT.709
  32. Matrix coefficients                      : BT.709

  33. Audio
  34. ID                                       : 2
  35. Format                                   : E-AC-3
  36. Format/Info                              : Enhanced AC-3
  37. Commercial name                          : Dolby Digital Plus
  38. Codec ID                                 : A_EAC3
  39. Duration                                 : 1 h 25 min
  40. Bit rate mode                            : Constant
  41. Bit rate                                 : 224 kb/s
  42. Channel(s)                               : 2 channels
  43. Channel layout                           : L R
  44. Sampling rate                            : 48.0 kHz
  45. Frame rate                               : 31.250 FPS (1536 SPF)
  46. Compression mode                         : Lossy
  47. Stream size                              : 137 MiB (2%)
  48. Language                                 : English
  49. Service kind                             : Complete Main
  50. Default                                  : Yes
  51. Forced                                   : No

  52. Text
  53. ID                                       : 3
  54. Format                                   : UTF-8
  55. Codec ID                                 : S_TEXT/UTF8
  56. Codec ID/Info                            : UTF-8 Plain Text
  57. Duration                                 : 1 h 21 min
  58. Bit rate                                 : 43 b/s
  59. Count of elements                        : 845
  60. Stream size                              : 26.1 KiB (0%)
  61. Language                                 : English
  62. Default                                  : No
  63. Forced                                   : No
復制代碼









分享到:  QQ好友和群QQ好友和群
收藏收藏
VIP會員免費任意下載本站所有資源!---點擊開通
回復

使用道具 舉報

懶得打字嘛,點擊右側快捷回復 【右側內容,后臺自定義】
您需要登錄后才可以回帖 登錄 | 立即注冊

本版積分規則

QQ|Archiver|手機版|小黑屋| 中國高清網 |網站地圖

GMT+8, 2019-12-10 10:02 , Processed in 0.172810 second(s), 36 queries .

Powered by HDchina X3.4

Copyright 2017-2019©HDchina.All right reserved

返回頂部 聯系我們
9肖30码图2019