查看: 10|回復: 0
打印 上一主題 下一主題

[劇情片] 哭泣的玫瑰/歌壇巨星莎蓮娜 Selena.1997.1080p.AMZN.WEBRip.DDP5.1.x264-SiGMA 10.70GB

[復制鏈接]

 成長值: 3410

級別:資源管理組

注冊時間
2017-10-20
最后登錄
2019-12-9
聽眾
1
收聽
0
主題
88361
藍光幣
69732 枚
貢獻
12723 點
跳轉到指定樓層
樓主
發表于 2019-11-15 22:30:12 | 只看該作者 |只看大圖 回帖獎勵 |倒序瀏覽 |閱讀模式


譯  名 哭泣的玫瑰 / 歌壇巨星莎蓮娜
片  名 Selena
年  代 1997
產  地 美國
類  別 劇情 / 音樂 / 傳記
語  言 英語 / 西班牙語
上映日期 1997-03-21(美國)
IMDb評分  6.7/10 from 22300 users
IMDb鏈接  http://www.imdb.com/title/tt0120094
豆瓣評分 7.2/10 from 527 users
豆瓣鏈接 https://movie.douban.com/subject/1293326/
片  長 127 分鐘
導  演 格雷戈里·內瓦 Gregory Nava
編  劇 格雷戈里·內瓦 Gregory Nava
主  演 詹妮弗·洛佩茲 Jennifer Lopez
      愛德華·詹姆斯·奧莫斯 Edward James Olmos
      喬恩·塞達 Jon Seda


標  簽 傳記 | 音樂 | 美國 | JenniferLopez | 美國電影 | 1997 | 愛情 | 人物傳記

簡  介  

  賽琳娜(詹妮弗·洛佩茲 Jennifer Lopez 飾)從小就展現出了過人的音樂天賦,長相甜美可愛的她熱愛唱歌和跳舞,這為她之后的人生歷程奠定了堅實的基礎。父親埃布拉罕(愛德華·詹姆斯·奧莫斯 Edward James Olmos 飾)堅定的支持著賽琳娜向自己的理想前進,果不其然,沒過多久,年紀輕輕的賽琳娜便成為了拉丁美洲最受歡迎的女歌手之一。
在事業蒸蒸日上的同時,賽琳娜邂逅了自己的一生摯愛,那就是之后成為了他丈夫的克里斯(喬恩·塞達 Jon Seda 飾),在親人,愛人,朋友和歌迷會的陪伴下,賽琳娜來到了人生的頂峰,此時沒有人知道,這個快樂的女孩正在度過的,竟然是她人生最后的歲月。

  1. Video
  2. ID                                       : 1
  3. Format                                   : AVC
  4. Format/Info                              : Advanced Video Codec
  5. Format profile                           : [email protected]
  6. Format settings                          : CABAC / 4 Ref Frames
  7. Format settings, CABAC                   : Yes
  8. Format settings, Reference frames        : 4 frames
  9. Codec ID                                 : V_MPEG4/ISO/AVC
  10. Duration                                 : 2 h 7 min
  11. Bit rate mode                            : Variable
  12. Bit rate                                 : 11.4 Mb/s
  13. Maximum bit rate                         : 15.0 Mb/s
  14. Width                                    : 1 920 pixels
  15. Height                                   : 1 080 pixels
  16. Display aspect ratio                     : 16:9
  17. Frame rate mode                          : Constant
  18. Frame rate                               : 23.976 (24000/1001) FPS
  19. Color space                              : YUV
  20. Chroma subsampling                       : 4:2:0
  21. Bit depth                                : 8 bits
  22. Scan type                                : Progressive
  23. Bits/(Pixel*Frame)                       : 0.228
  24. Stream size                              : 10.1 GiB (95%)
  25. Default                                  : Yes
  26. Forced                                   : No
  27. Color range                              : Limited
  28. Color primaries                          : BT.709
  29. Transfer characteristics                 : BT.709
  30. Matrix coefficients                      : BT.709

  31. Audio
  32. ID                                       : 2
  33. Format                                   : E-AC-3
  34. Format/Info                              : Enhanced AC-3
  35. Commercial name                          : Dolby Digital Plus
  36. Codec ID                                 : A_EAC3
  37. Duration                                 : 2 h 7 min
  38. Bit rate mode                            : Constant
  39. Bit rate                                 : 640 kb/s
  40. Channel(s)                               : 6 channels
  41. Channel layout                           : L R C LFE Ls Rs
  42. Sampling rate                            : 48.0 kHz
  43. Frame rate                               : 31.250 FPS (1536 SPF)
  44. Compression mode                         : Lossy
  45. Stream size                              : 584 MiB (5%)
  46. Language                                 : English
  47. Service kind                             : Complete Main
  48. Default                                  : Yes
  49. Forced                                   : No

  50. Text
  51. ID                                       : 3
  52. Format                                   : UTF-8
  53. Codec ID                                 : S_TEXT/UTF8
  54. Codec ID/Info                            : UTF-8 Plain Text
  55. Duration                                 : 2 h 6 min
  56. Bit rate                                 : 75 b/s
  57. Count of elements                        : 2623
  58. Stream size                              : 70.4 KiB (0%)
  59. Language                                 : English
  60. Default                                  : No
  61. Forced                                   : No
復制代碼









分享到:  QQ好友和群QQ好友和群
收藏收藏
VIP會員免費任意下載本站所有資源!---點擊開通
回復

使用道具 舉報

懶得打字嘛,點擊右側快捷回復 【右側內容,后臺自定義】
您需要登錄后才可以回帖 登錄 | 立即注冊

本版積分規則

QQ|Archiver|手機版|小黑屋| 中國高清網 |網站地圖

GMT+8, 2019-12-10 11:10 , Processed in 0.207840 second(s), 36 queries .

Powered by HDchina X3.4

Copyright 2017-2019©HDchina.All right reserved

返回頂部 聯系我們
9肖30码图2019