查看: 10|回復: 0
打印 上一主題 下一主題

[動作片] 奧克斯 Aux.2018.1080p.AMZN.WEBRip.DDP5.1.x264-CM 5.05GB

[復制鏈接]

 成長值: 3440

級別:資源管理組

注冊時間
2017-10-20
最后登錄
2019-12-12
聽眾
1
收聽
0
主題
88425
藍光幣
70515 枚
貢獻
12787 點
跳轉到指定樓層
樓主
發表于 2019-11-15 22:28:13 | 只看該作者 |只看大圖 回帖獎勵 |倒序瀏覽 |閱讀模式


譯  名 奧克斯 / Soldier.of.War.AKA.Aux
片  名 Aux
年  代 2016
產  地 英國
類  別 動作 / 恐怖
語  言 英語
上映日期 2018-03-02(英國)
IMDb評分  4.2/10 from 234 users
IMDb鏈接  https://www.imdb.com/title/tt4443974
豆瓣評分 0/10 from 0 users
豆瓣鏈接 https://movie.douban.com/subject/26703128/
片  長 83分鐘
導  演 John Adams
編  劇 John Adams / Peter Adams
主  演 約翰·瑞斯-戴維斯 John Rhys-Davies
       Tanya Franks
       羅茜·費爾納 Rosie Fellner
       西奧·德瓦尼 Theo Devaney
       Paul Reynolds
       Sally Mortemore
       杰克·德格斯 Jack Derges
       James Fisher
       Gary Mavers
       Henry Douthwaite
       Patrick Pearson
       Chris Wilson
       Tristam Summers
       Samantha Lyden
       Anniwaa Buachie


標  簽 恐怖 | 爛片 | 超爛劇情 | 劇情 | 英國 | 美國電影 | 美國 | 動作

簡  介  

  2個男孩發現通往一個秘密軍事燃料庫的入口,自從二戰的后就沒有被發現過。男孩們喚醒了什么恐怖的東西,一個男孩為此丟了性命,另一個在逃跑的時候被車撞了。警察開始了調查,但是一個接著一個的警察和司法人員被用奇怪和神秘的方式殺死。與此同時,在當地老人的屋子里面,一個二戰時的老兵在新聞中看到了所有事情的發展,他認識到發生了什么事情。當毀壞和毀滅在人們身邊發生的越來越嚴重的時候,有什么人會相信一個微弱的老人呢?
  1. Video
  2. ID                                       : 1
  3. Format                                   : AVC
  4. Format/Info                              : Advanced Video Codec
  5. Format profile                           : [email protected]
  6. Format settings                          : CABAC / 4 Ref Frames
  7. Format settings, CABAC                   : Yes
  8. Format settings, Reference frames        : 4 frames
  9. Codec ID                                 : V_MPEG4/ISO/AVC
  10. Duration                                 : 1 h 21 min
  11. Bit rate mode                            : Constant
  12. Bit rate                                 : 8 228 kb/s
  13. Nominal bit rate                         : 10 000 kb/s
  14. Width                                    : 1 920 pixels
  15. Height                                   : 800 pixels
  16. Display aspect ratio                     : 2.40:1
  17. Frame rate mode                          : Constant
  18. Frame rate                               : 23.976 (24000/1001) FPS
  19. Color space                              : YUV
  20. Chroma subsampling                       : 4:2:0
  21. Bit depth                                : 8 bits
  22. Scan type                                : Progressive
  23. Bits/(Pixel*Frame)                       : 0.223
  24. Stream size                              : 4.68 GiB (93%)
  25. Default                                  : Yes
  26. Forced                                   : No
  27. Color range                              : Limited
  28. Color primaries                          : BT.709
  29. Transfer characteristics                 : BT.709
  30. Matrix coefficients                      : BT.709

  31. Audio
  32. ID                                       : 2
  33. Format                                   : E-AC-3
  34. Format/Info                              : Enhanced AC-3
  35. Commercial name                          : Dolby Digital Plus
  36. Codec ID                                 : A_EAC3
  37. Duration                                 : 1 h 21 min
  38. Bit rate mode                            : Constant
  39. Bit rate                                 : 640 kb/s
  40. Channel(s)                               : 6 channels
  41. Channel layout                           : L R C LFE Ls Rs
  42. Sampling rate                            : 48.0 kHz
  43. Frame rate                               : 31.250 FPS (1536 SPF)
  44. Compression mode                         : Lossy
  45. Stream size                              : 373 MiB (7%)
  46. Title                                    : English
  47. Language                                 : English
  48. Service kind                             : Complete Main
  49. Default                                  : Yes
  50. Forced                                   : No

  51. Text
  52. ID                                       : 3
  53. Format                                   : UTF-8
  54. Codec ID                                 : S_TEXT/UTF8
  55. Codec ID/Info                            : UTF-8 Plain Text
  56. Duration                                 : 1 h 17 min
  57. Bit rate                                 : 75 b/s
  58. Count of elements                        : 1418
  59. Stream size                              : 43.3 KiB (0%)
  60. Title                                    : English [SDH]
  61. Language                                 : English
  62. Default                                  : No
  63. Forced                                   : No
復制代碼









分享到:  QQ好友和群QQ好友和群
收藏收藏
VIP會員免費任意下載本站所有資源!---點擊開通
回復

使用道具 舉報

懶得打字嘛,點擊右側快捷回復 【右側內容,后臺自定義】
您需要登錄后才可以回帖 登錄 | 立即注冊

本版積分規則

QQ|Archiver|手機版|小黑屋| 中國高清網 |網站地圖

GMT+8, 2019-12-13 07:49 , Processed in 0.193070 second(s), 36 queries .

Powered by HDchina X3.4

Copyright 2017-2019©HDchina.All right reserved

返回頂部 聯系我們
9肖30码图2019