查看: 9|回復: 0
打印 上一主題 下一主題

[劇情片] 辛迪加搗碎機 Syndicate.Smasher.2017.1080p.AMZN.WEBRip.DDP2.0.x264-NTG 5.99GB

[復制鏈接]

 成長值: 3410

級別:資源管理組

注冊時間
2017-10-20
最后登錄
2019-12-9
聽眾
1
收聽
0
主題
88361
藍光幣
69720 枚
貢獻
12723 點
跳轉到指定樓層
樓主
發表于 2019-11-15 22:24:43 | 只看該作者 |只看大圖 回帖獎勵 |倒序瀏覽 |閱讀模式


譯  名 辛迪加搗碎機
片  名 Syndicate Smasher
年  代 2017
產  地 美國
類  別 劇情 / 動作
語  言 英語
上映日期 2017-03-11(洛杉磯首映)
IMDb評分  5.5/10 from 526 users
IMDb鏈接  https://www.imdb.com/title/tt4473054
豆瓣評分 0/10 from 0 users
豆瓣鏈接 https://movie.douban.com/subject/30251408/
片  長 90分鐘
導  演 Benny Tjandra / Doug Tochioka
編  劇 Doug Tochioka
主  演 Mel Novak
       Laurene Landon
       David Prak
       Jon Miguel
       Olya Lvova
       Nic D'Avirro
       Arthur Roberts
       Hidetoshi Imura
       Eiji Inoue
       William De Vital
       Vitaly Sviridoff
       Victor Chi
       Philip Pirio


簡  介  

  A group of mercenaries hired as contract killers are hunted down by the Mafia, the Yakuza, the Russian Mob, and the Tongs all at once.
  1. Video
  2. ID                                       : 1
  3. Format                                   : AVC
  4. Format/Info                              : Advanced Video Codec
  5. Format profile                           : [email protected]
  6. Format settings                          : CABAC / 4 Ref Frames
  7. Format settings, CABAC                   : Yes
  8. Format settings, Reference frames        : 4 frames
  9. Codec ID                                 : V_MPEG4/ISO/AVC
  10. Duration                                 : 1 h 37 min
  11. Bit rate                                 : 8 545 kb/s
  12. Width                                    : 1 920 pixels
  13. Height                                   : 1 080 pixels
  14. Display aspect ratio                     : 16:9
  15. Frame rate mode                          : Constant
  16. Frame rate                               : 29.970 (30000/1001) FPS
  17. Color space                              : YUV
  18. Chroma subsampling                       : 4:2:0
  19. Bit depth                                : 8 bits
  20. Scan type                                : Progressive
  21. Bits/(Pixel*Frame)                       : 0.138
  22. Stream size                              : 5.84 GiB (97%)
  23. Default                                  : Yes
  24. Forced                                   : No
  25. Color range                              : Limited
  26. Color primaries                          : BT.709
  27. Transfer characteristics                 : BT.709
  28. Matrix coefficients                      : BT.709

  29. Audio
  30. ID                                       : 2
  31. Format                                   : E-AC-3
  32. Format/Info                              : Enhanced AC-3
  33. Commercial name                          : Dolby Digital Plus
  34. Codec ID                                 : A_EAC3
  35. Duration                                 : 1 h 37 min
  36. Bit rate mode                            : Constant
  37. Bit rate                                 : 224 kb/s
  38. Channel(s)                               : 2 channels
  39. Channel layout                           : L R
  40. Sampling rate                            : 48.0 kHz
  41. Frame rate                               : 31.250 FPS (1536 SPF)
  42. Compression mode                         : Lossy
  43. Stream size                              : 157 MiB (3%)
  44. Language                                 : English
  45. Service kind                             : Complete Main
  46. Default                                  : Yes
  47. Forced                                   : No

  48. Text
  49. ID                                       : 3
  50. Format                                   : UTF-8
  51. Codec ID                                 : S_TEXT/UTF8
  52. Codec ID/Info                            : UTF-8 Plain Text
  53. Duration                                 : 1 h 34 min
  54. Bit rate                                 : 56 b/s
  55. Count of elements                        : 1345
  56. Stream size                              : 39.2 KiB (0%)
  57. Title                                    : SDH
  58. Language                                 : English
  59. Default                                  : No
  60. Forced                                   : No
復制代碼









分享到:  QQ好友和群QQ好友和群
收藏收藏
VIP會員免費任意下載本站所有資源!---點擊開通
回復

使用道具 舉報

懶得打字嘛,點擊右側快捷回復 【右側內容,后臺自定義】
您需要登錄后才可以回帖 登錄 | 立即注冊

本版積分規則

QQ|Archiver|手機版|小黑屋| 中國高清網 |網站地圖

GMT+8, 2019-12-10 10:07 , Processed in 0.229824 second(s), 36 queries .

Powered by HDchina X3.4

Copyright 2017-2019©HDchina.All right reserved

返回頂部 聯系我們
9肖30码图2019