查看: 15|回復: 0
打印 上一主題 下一主題

[紀錄片] 泰迪·彭德格拉斯:如果你不認識我 Teddy.Pendergrass.If.You.Dont.Know.Me.2018.1080p.AMZN.WEBRip.DD5.1.x264-AJP69 6.40GB

[復制鏈接]

 成長值: 3410

級別:資源管理組

注冊時間
2017-10-20
最后登錄
2019-12-9
聽眾
1
收聽
0
主題
88361
藍光幣
69732 枚
貢獻
12723 點
跳轉到指定樓層
樓主
發表于 2019-11-15 22:22:05 | 只看該作者 |只看大圖 回帖獎勵 |倒序瀏覽 |閱讀模式


譯  名 泰迪·彭德格拉斯:如果你不認識我
片  名 Teddy Pendergrass: If You Don't Know Me
年  代 2018
產  地 英國
類  別 紀錄片 / 音樂
語  言 英語
上映日期 2018-02-22(英國)
IMDb評分  8.0/10 from 190 users
IMDb鏈接  https://www.imdb.com/title/tt6522666
豆瓣評分 0/10 from 0 users
豆瓣鏈接 https://movie.douban.com/subject/33218483/
片  長 106分鐘
導  演 Olivia Lichtenstein
主  演 Anthony Samuels
       Teddy Pendergrass


標  簽 音樂 | 紀錄片 | Documentary | Biography | 2018 | 2010s

簡  介  

  This documentary explores the rise of Teddy Pendergrass, the first male African American artist to record five consecutive platinum albums against the backdrop of 1960s America, and his comeback after a life-changing accident.
  1. Video
  2. ID                                       : 1
  3. Format                                   : AVC
  4. Format/Info                              : Advanced Video Codec
  5. Format profile                           : [email protected]
  6. Format settings                          : CABAC / 4 Ref Frames
  7. Format settings, CABAC                   : Yes
  8. Format settings, Reference frames        : 4 frames
  9. Codec ID                                 : V_MPEG4/ISO/AVC
  10. Duration                                 : 1 h 46 min
  11. Bit rate mode                            : Constant
  12. Bit rate                                 : 7 977 kb/s
  13. Nominal bit rate                         : 10 000 kb/s
  14. Width                                    : 1 920 pixels
  15. Height                                   : 1 080 pixels
  16. Display aspect ratio                     : 16:9
  17. Frame rate mode                          : Constant
  18. Frame rate                               : 23.976 (24000/1001) FPS
  19. Color space                              : YUV
  20. Chroma subsampling                       : 4:2:0
  21. Bit depth                                : 8 bits
  22. Scan type                                : Progressive
  23. Bits/(Pixel*Frame)                       : 0.160
  24. Stream size                              : 5.92 GiB (93%)
  25. Default                                  : Yes
  26. Forced                                   : No
  27. Color range                              : Limited
  28. Color primaries                          : BT.709
  29. Transfer characteristics                 : BT.709
  30. Matrix coefficients                      : BT.709

  31. Audio
  32. ID                                       : 2
  33. Format                                   : E-AC-3
  34. Format/Info                              : Enhanced AC-3
  35. Commercial name                          : Dolby Digital Plus
  36. Codec ID                                 : A_EAC3
  37. Duration                                 : 1 h 46 min
  38. Bit rate mode                            : Constant
  39. Bit rate                                 : 640 kb/s
  40. Channel(s)                               : 6 channels
  41. Channel layout                           : L R C LFE Ls Rs
  42. Sampling rate                            : 48.0 kHz
  43. Frame rate                               : 31.250 FPS (1536 SPF)
  44. Compression mode                         : Lossy
  45. Stream size                              : 487 MiB (7%)
  46. Language                                 : English
  47. Service kind                             : Complete Main
  48. Default                                  : Yes
  49. Forced                                   : No

  50. Text #1
  51. ID                                       : 3
  52. Format                                   : UTF-8
  53. Codec ID                                 : S_TEXT/UTF8
  54. Codec ID/Info                            : UTF-8 Plain Text
  55. Duration                                 : 1 h 45 min
  56. Bit rate                                 : 77 b/s
  57. Count of elements                        : 1639
  58. Stream size                              : 59.8 KiB (0%)
  59. Language                                 : English
  60. Default                                  : No
  61. Forced                                   : No

  62. Text #2
  63. ID                                       : 4
  64. Format                                   : UTF-8
  65. Codec ID                                 : S_TEXT/UTF8
  66. Codec ID/Info                            : UTF-8 Plain Text
  67. Duration                                 : 1 h 45 min
  68. Bit rate                                 : 82 b/s
  69. Count of elements                        : 1748
  70. Stream size                              : 63.7 KiB (0%)
  71. Title                                    : SDH
  72. Language                                 : English
  73. Default                                  : No
  74. Forced                                   : No
復制代碼









分享到:  QQ好友和群QQ好友和群
收藏收藏
VIP會員免費任意下載本站所有資源!---點擊開通
回復

使用道具 舉報

懶得打字嘛,點擊右側快捷回復 【右側內容,后臺自定義】
您需要登錄后才可以回帖 登錄 | 立即注冊

本版積分規則

QQ|Archiver|手機版|小黑屋| 中國高清網 |網站地圖

GMT+8, 2019-12-10 11:15 , Processed in 0.288729 second(s), 36 queries .

Powered by HDchina X3.4

Copyright 2017-2019©HDchina.All right reserved

返回頂部 聯系我們
9肖30码图2019