查看: 6|回復: 0
打印 上一主題 下一主題

[喜劇片] 少棒闖天下之小小遠征軍/小小遠征軍 The.Bad.News.Bears.Go.to.Japan.1978.1080p.AMZN.WEBRip.DDP2.0.x264-monkee 9.12GB

[復制鏈接]

 成長值: 3410

級別:資源管理組

注冊時間
2017-10-20
最后登錄
2019-12-9
聽眾
1
收聽
0
主題
88361
藍光幣
69720 枚
貢獻
12723 點
跳轉到指定樓層
樓主
發表于 2019-11-15 22:10:04 | 只看該作者 |只看大圖 回帖獎勵 |倒序瀏覽 |閱讀模式


譯  名 少棒闖天下之小小遠征軍 / 小小遠征軍 / 小鬼頭大進軍
片  名 The Bad News Bears Go to Japan
年  代 1978
產  地 美國 / 日本
類  別 喜劇 / 運動
語  言 英語 / 日語
上映日期 1978-06-30
IMDb評分  3.7/10 from 2532 users
IMDb鏈接  https://www.imdb.com/title/tt0077199
豆瓣評分 0/10 from 0 users
豆瓣鏈接 https://movie.douban.com/subject/1298575/
片  長 91 分鐘
導  演 約翰·貝里 John Berry
編  劇 比爾·蘭卡斯特 Bill Lancaster
主  演 托尼·柯蒂斯 Tony Curtis
       杰基·厄爾·哈利 Jackie Earle Haley


標  簽 節目-解密 | 節目 | 深圳衛視 | 張溢 | WEB | 1978

簡  介  

  暫無相關劇情介紹
  1. Video
  2. ID : 1
  3. Format : AVC
  4. Format/Info : Advanced Video Codec
  5. Format profile : [email protected]
  6. Format settings : CABAC / 4 Ref Frames
  7. Format settings, CABAC : Yes
  8. Format settings, Reference frames : 4 frames
  9. Codec ID : V_MPEG4/ISO/AVC
  10. Duration : 1 h 32 min
  11. Bit rate : 13.9 Mb/s
  12. Width : 1 920 pixels
  13. Height : 1 080 pixels
  14. Display aspect ratio : 16:9
  15. Frame rate mode : Constant
  16. Frame rate : 23.976 (24000/1001) FPS
  17. Color space : YUV
  18. Chroma subsampling : 4:2:0
  19. Bit depth : 8 bits
  20. Scan type : Progressive
  21. Bits/(Pixel*Frame) : 0.280
  22. Stream size : 8.97 GiB (98%)
  23. Default : Yes
  24. Forced : No
  25. Color range : Limited
  26. Color primaries : BT.709
  27. Transfer characteristics : BT.709
  28. Matrix coefficients : BT.709

  29. Audio
  30. ID : 2
  31. Format : E-AC-3
  32. Format/Info : Enhanced AC-3
  33. Commercial name : Dolby Digital Plus
  34. Codec ID : A_EAC3
  35. Duration : 1 h 32 min
  36. Bit rate mode : Constant
  37. Bit rate : 224 kb/s
  38. Channel(s) : 2 channels
  39. Channel layout : L R
  40. Sampling rate : 48.0 kHz
  41. Frame rate : 31.250 FPS (1536 SPF)
  42. Compression mode : Lossy
  43. Stream size : 148 MiB (2%)
  44. Language : English
  45. Service kind : Complete Main
  46. Default : Yes
  47. Forced : No

  48. Text #1
  49. ID : 3
  50. Format : UTF-8
  51. Codec ID : S_TEXT/UTF8
  52. Codec ID/Info : UTF-8 Plain Text
  53. Duration : 1 h 29 min
  54. Bit rate : 61 b/s
  55. Count of elements : 1276
  56. Stream size : 40.6 KiB (0%)
  57. Language : English
  58. Default : No
  59. Forced : No

  60. Text #2
  61. ID : 4
  62. Format : UTF-8
  63. Codec ID : S_TEXT/UTF8
  64. Codec ID/Info : UTF-8 Plain Text
  65. Duration : 1 h 31 min
  66. Bit rate : 68 b/s
  67. Count of elements : 1497
  68. Stream size : 45.7 KiB (0%)
  69. Title : SDH
  70. Language : English
  71. Default : No
  72. Forced : No
復制代碼









分享到:  QQ好友和群QQ好友和群
收藏收藏
VIP會員免費任意下載本站所有資源!---點擊開通
回復

使用道具 舉報

懶得打字嘛,點擊右側快捷回復 【右側內容,后臺自定義】
您需要登錄后才可以回帖 登錄 | 立即注冊

本版積分規則

QQ|Archiver|手機版|小黑屋| 中國高清網 |網站地圖

GMT+8, 2019-12-10 10:09 , Processed in 0.187117 second(s), 36 queries .

Powered by HDchina X3.4

Copyright 2017-2019©HDchina.All right reserved

返回頂部 聯系我們
9肖30码图2019