查看: 12|回復: 0
打印 上一主題 下一主題

[恐怖片] 安德斯莊園 The.Manor.2018.1080p.AMZN.WEBRip.DDP5.1.x264-NTG 5.66GB

[復制鏈接]

 成長值: 3440

級別:資源管理組

注冊時間
2017-10-20
最后登錄
2019-12-12
聽眾
1
收聽
0
主題
88425
藍光幣
70515 枚
貢獻
12787 點
跳轉到指定樓層
樓主
發表于 2019-11-15 22:05:53 | 只看該作者 |只看大圖 回帖獎勵 |倒序瀏覽 |閱讀模式


譯  名 安德斯莊園 / Anders Manor
片  名 The Manor
年  代 2018
產  地 美國
類  別 恐怖
語  言 英語
上映日期 2018-05-18(美國)
IMDb評分  3.0/10 from 157 users
IMDb鏈接  http://www.imdb.com/title/tt5989336
豆瓣評分 0/10 from 0 users
豆瓣鏈接 https://movie.douban.com/subject/30167481/
片  長 92分鐘
導  演 Jonathon Schermerhorn
編  劇 Tom DeNucci / Glenn Jeffrey / Mike Messier / Matt O'Connor
主  演 克里斯蒂娜·羅賓森 Christina Robinson
       凱文·納什 Kevin Nash
       Rachel True


標  簽 爛片 | 美國 | 番茄醬吃撐系列 | 恐怖 | 2018

簡  介  

  It’s Amy’s eighteenth birthday. While most girls her age are celebrating with friends and painting the town, Amy is checking herself out of the insane asylum.Amy’s mother, Jane, decides to take her on a family get away, to celebrate her birthday and re-acclimate her to everyday life. A weekend intended to rekindle family ties quickly turns to the most horrific family reunion in American history. And it all goes down at Anders Manor…
  1. Video
  2. ID                                       : 1
  3. Format                                   : AVC
  4. Format/Info                              : Advanced Video Codec
  5. Format profile                           : [email protected]
  6. Format settings                          : CABAC / 4 Ref Frames
  7. Format settings, CABAC                   : Yes
  8. Format settings, Reference frames        : 4 frames
  9. Codec ID                                 : V_MPEG4/ISO/AVC
  10. Duration                                 : 1 h 26 min
  11. Bit rate mode                            : Variable
  12. Bit rate                                 : 8 692 kb/s
  13. Maximum bit rate                         : 15.0 Mb/s
  14. Width                                    : 1 920 pixels
  15. Height                                   : 1 080 pixels
  16. Display aspect ratio                     : 16:9
  17. Frame rate mode                          : Constant
  18. Frame rate                               : 23.976 (24000/1001) FPS
  19. Color space                              : YUV
  20. Chroma subsampling                       : 4:2:0
  21. Bit depth                                : 8 bits
  22. Scan type                                : Progressive
  23. Bits/(Pixel*Frame)                       : 0.175
  24. Stream size                              : 5.27 GiB (93%)
  25. Default                                  : Yes
  26. Forced                                   : No
  27. Color range                              : Limited
  28. Color primaries                          : BT.709
  29. Transfer characteristics                 : BT.709
  30. Matrix coefficients                      : BT.709

  31. Audio
  32. ID                                       : 2
  33. Format                                   : E-AC-3
  34. Format/Info                              : Enhanced AC-3
  35. Commercial name                          : Dolby Digital Plus
  36. Codec ID                                 : A_EAC3
  37. Duration                                 : 1 h 26 min
  38. Bit rate mode                            : Constant
  39. Bit rate                                 : 640 kb/s
  40. Channel(s)                               : 6 channels
  41. Channel layout                           : L R C LFE Ls Rs
  42. Sampling rate                            : 48.0 kHz
  43. Frame rate                               : 31.250 FPS (1536 SPF)
  44. Compression mode                         : Lossy
  45. Stream size                              : 397 MiB (7%)
  46. Language                                 : English
  47. Service kind                             : Complete Main
  48. Default                                  : Yes
  49. Forced                                   : No

  50. Text #1
  51. ID                                       : 3
  52. Format                                   : UTF-8
  53. Codec ID                                 : S_TEXT/UTF8
  54. Codec ID/Info                            : UTF-8 Plain Text
  55. Duration                                 : 1 h 19 min
  56. Bit rate                                 : 48 b/s
  57. Count of elements                        : 989
  58. Stream size                              : 28.1 KiB (0%)
  59. Language                                 : English
  60. Default                                  : No
  61. Forced                                   : No

  62. Text #2
  63. ID                                       : 4
  64. Format                                   : UTF-8
  65. Codec ID                                 : S_TEXT/UTF8
  66. Codec ID/Info                            : UTF-8 Plain Text
  67. Duration                                 : 1 h 25 min
  68. Bit rate                                 : 50 b/s
  69. Count of elements                        : 1143
  70. Stream size                              : 31.5 KiB (0%)
  71. Title                                    : SDH
  72. Language                                 : English
  73. Default                                  : No
  74. Forced                                   : No
復制代碼









分享到:  QQ好友和群QQ好友和群
收藏收藏
VIP會員免費任意下載本站所有資源!---點擊開通
回復

使用道具 舉報

懶得打字嘛,點擊右側快捷回復 【右側內容,后臺自定義】
您需要登錄后才可以回帖 登錄 | 立即注冊

本版積分規則

QQ|Archiver|手機版|小黑屋| 中國高清網 |網站地圖

GMT+8, 2019-12-13 07:55 , Processed in 0.175121 second(s), 36 queries .

Powered by HDchina X3.4

Copyright 2017-2019©HDchina.All right reserved

返回頂部 聯系我們
9肖30码图2019