查看: 23|回復: 0
打印 上一主題 下一主題

[紀錄片] 面具之內/面具人生 The.Mask.You.Live.In.2015.1080p.NF.WEBRip.DD2.0.x264-AJP69 3.62GB

[復制鏈接]

 成長值: 3410

級別:資源管理組

注冊時間
2017-10-20
最后登錄
2019-12-9
聽眾
1
收聽
0
主題
88361
藍光幣
69716 枚
貢獻
12723 點
跳轉到指定樓層
樓主
發表于 2019-11-15 22:03:01 | 只看該作者 |只看大圖 回帖獎勵 |倒序瀏覽 |閱讀模式


譯  名 面具之內 / 面具人生
片  名 The Mask You Live In
年  代 2015
產  地 美國
類  別 紀錄片
語  言 英語
上映日期 2015
IMDb評分  7.6/10 from 2123 users
IMDb鏈接  https://www.imdb.com/title/tt3983674
豆瓣評分 8.7/10 from 1177 users
豆瓣鏈接 https://movie.douban.com/subject/26279372/
片  長 97分鐘
導  演 Jennifer Siebel Newsom
編  劇 Jessica Congdon / Jennifer Siebel Newsom

標  簽 紀錄片 | 美國 | 心理 | 社會 | 性別 | 男性 | 性別暴力 | 2015

簡  介  

  Explores how our culture's narrow definition of masculinity is harming our boys, men and society at large and unveils what we can do about it.
  1. Video
  2. ID                                       : 1
  3. Format                                   : AVC
  4. Format/Info                              : Advanced Video Codec
  5. Format profile                           : [email protected]
  6. Format settings                          : CABAC / 3 Ref Frames
  7. Format settings, CABAC                   : Yes
  8. Format settings, Reference frames        : 3 frames
  9. Codec ID                                 : V_MPEG4/ISO/AVC
  10. Duration                                 : 1 h 31 min
  11. Bit rate mode                            : Variable
  12. Bit rate                                 : 5 620 kb/s
  13. Maximum bit rate                         : 8 430 kb/s
  14. Width                                    : 1 920 pixels
  15. Height                                   : 1 080 pixels
  16. Display aspect ratio                     : 16:9
  17. Frame rate mode                          : Constant
  18. Frame rate                               : 23.976 (24000/1001) FPS
  19. Color space                              : YUV
  20. Chroma subsampling                       : 4:2:0
  21. Bit depth                                : 8 bits
  22. Scan type                                : Progressive
  23. Bits/(Pixel*Frame)                       : 0.113
  24. Stream size                              : 3.53 GiB (98%)
  25. Writing library                          : x264 core 118
  26. Encoding settings                        : cabac=1 / ref=3 / deblock=1:0:0 / analyse=0x1:0x111 / me=umh / subme=10 / psy=1 / psy_rd=1.00:0.00 / mixed_ref=1 / me_range=24 / chroma_me=1 / trellis=2 / 8x8dct=0 / cqm=0 / deadzone=21,11 / fast_pskip=1 / chroma_qp_offset=-2 / threads=6 / sliced_threads=0 / nr=0 / decimate=1 / interlaced=0 / bluray_compat=0 / constrained_intra=0 / bframes=2 / b_pyramid=0 / b_adapt=2 / b_bias=0 / direct=3 / weightb=1 / open_gop=0 / weightp=2 / keyint=48 / keyint_min=25 / scenecut=0 / intra_refresh=0 / rc_lookahead=0 / rc=2pass / mbtree=1 / bitrate=5620 / ratetol=1.0 / qcomp=0.50 / qpmin=6 / qpmax=51 / qpstep=4 / cplxblur=20.0 / qblur=0.5 / vbv_maxrate=8430 / vbv_bufsize=11240 / nal_hrd=vbr / ip_ratio=1.40 / aq=1:1.00
  27. Default                                  : Yes
  28. Forced                                   : No

  29. Audio
  30. ID                                       : 2
  31. Format                                   : E-AC-3
  32. Format/Info                              : Enhanced AC-3
  33. Commercial name                          : Dolby Digital Plus
  34. Codec ID                                 : A_EAC3
  35. Duration                                 : 1 h 31 min
  36. Bit rate mode                            : Constant
  37. Bit rate                                 : 128 kb/s
  38. Channel(s)                               : 2 channels
  39. Channel layout                           : L R
  40. Sampling rate                            : 48.0 kHz
  41. Frame rate                               : 31.250 FPS (1536 SPF)
  42. Compression mode                         : Lossy
  43. Stream size                              : 84.1 MiB (2%)
  44. Language                                 : English
  45. Service kind                             : Complete Main
  46. Default                                  : Yes
  47. Forced                                   : No

  48. Text #1
  49. ID                                       : 3
  50. Format                                   : UTF-8
  51. Codec ID                                 : S_TEXT/UTF8
  52. Codec ID/Info                            : UTF-8 Plain Text
  53. Duration                                 : 3 min 37 s
  54. Bit rate                                 : 29 b/s
  55. Count of elements                        : 26
  56. Stream size                              : 799 Bytes (0%)
  57. Title                                    : Forced
  58. Language                                 : English
  59. Default                                  : Yes
  60. Forced                                   : Yes

  61. Text #2
  62. ID                                       : 4
  63. Format                                   : UTF-8
  64. Codec ID                                 : S_TEXT/UTF8
  65. Codec ID/Info                            : UTF-8 Plain Text
  66. Duration                                 : 1 h 31 min
  67. Bit rate                                 : 101 b/s
  68. Count of elements                        : 3375
  69. Stream size                              : 68.2 KiB (0%)
  70. Title                                    : SDH
  71. Language                                 : English
  72. Default                                  : No
  73. Forced                                   : No

  74. Text #3
  75. ID                                       : 5
  76. Format                                   : UTF-8
  77. Codec ID                                 : S_TEXT/UTF8
  78. Codec ID/Info                            : UTF-8 Plain Text
  79. Duration                                 : 1 h 27 min
  80. Bit rate                                 : 86 b/s
  81. Count of elements                        : 2046
  82. Stream size                              : 55.6 KiB (0%)
  83. Language                                 : Spanish
  84. Default                                  : No
  85. Forced                                   : No
復制代碼









分享到:  QQ好友和群QQ好友和群
收藏收藏
VIP會員免費任意下載本站所有資源!---點擊開通
回復

使用道具 舉報

懶得打字嘛,點擊右側快捷回復 【右側內容,后臺自定義】
您需要登錄后才可以回帖 登錄 | 立即注冊

本版積分規則

QQ|Archiver|手機版|小黑屋| 中國高清網 |網站地圖

GMT+8, 2019-12-10 09:57 , Processed in 0.177226 second(s), 36 queries .

Powered by HDchina X3.4

Copyright 2017-2019©HDchina.All right reserved

返回頂部 聯系我們
9肖30码图2019