查看: 7|回復: 0
打印 上一主題 下一主題

[紀錄片] 希特勒的子孫們/希特勒的孩子 Hitlers.Children.2011.SUBBED.1080p.AMZN.WEBRip.DDP2.0.x264-NTb 6.18GB

[復制鏈接]

 成長值: 3410

級別:資源管理組

注冊時間
2017-10-20
最后登錄
2019-12-9
聽眾
1
收聽
0
主題
88361
藍光幣
69732 枚
貢獻
12723 點
跳轉到指定樓層
樓主
發表于 2019-11-15 21:55:35 | 只看該作者 |只看大圖 回帖獎勵 |倒序瀏覽 |閱讀模式


譯  名 希特勒的子孫們 / 希特勒的孩子
片  名 Hitler's Children
年  代 2011
產  地 以色列 Israel / 美國 / 德國
類  別 紀錄片
語  言 英語 / 德語
上映日期 2011-09-21(荷蘭) / 2012-03-10(捷克共和國) / 2012-10-18(美國)
IMDb評分  7.4/10 from 1115 users
IMDb鏈接  https://www.imdb.com/title/tt2359085
豆瓣評分 8.3/10 from 69 users
豆瓣鏈接 https://movie.douban.com/subject/10811424/
片  長 59分鐘
導  演 Chanoch Zeevi
主  演 Bettina Goering
       Katrin Himmler
       Rainer Hoess
       Eldad Beck
       Monika Goeth
       Adi Goering
       Yael Bedarshi


標  簽 紀錄片 | 德國 | 以色列 | 二戰 | 政治 | 美國 | 社會 | 大屠殺

簡  介  

  五個名字,記載一段無法抹滅的過去。納粹德國進行滅種計劃,導致六百萬名猶太人在十二年間遭到殺害。當初建造奧斯威辛集中營的軍官的外甥女,和其他四位服膺于希特勒的領導人后裔,一起揭開自己的家族密辛。導演透過世代關系,讓我們見證德國如何面對歷史傷痕。
  1. Video
  2. ID : 1
  3. Format : AVC
  4. Format/Info : Advanced Video Codec
  5. Format profile : [email protected]
  6. Format settings : CABAC / 4 Ref Frames
  7. Format settings, CABAC : Yes
  8. Format settings, Reference frames : 4 frames
  9. Codec ID : V_MPEG4/ISO/AVC
  10. Duration : 1 h 23 min
  11. Bit rate mode : Variable
  12. Bit rate : 10.4 Mb/s
  13. Maximum bit rate : 15.0 Mb/s
  14. Width : 1 920 pixels
  15. Height : 1 080 pixels
  16. Display aspect ratio : 16:9
  17. Frame rate mode : Constant
  18. Frame rate : 23.976 (24000/1001) FPS
  19. Color space : YUV
  20. Chroma subsampling : 4:2:0
  21. Bit depth : 8 bits
  22. Scan type : Progressive
  23. Bits/(Pixel*Frame) : 0.210
  24. Stream size : 6.05 GiB (98%)
  25. Writing library : x264 core 148 r2623 d5b2374
  26. Encoding settings : cabac=1 / ref=4 / deblock=1:-1:-1 / analyse=0x3:0x133 / me=umh / subme=9 / psy=1 / psy_rd=1.00:0.15 / mixed_ref=1 / me_range=24 / chroma_me=1 / trellis=2 / 8x8dct=1 / cqm=0 / deadzone=21,11 / fast_pskip=1 / chroma_qp_offset=-3 / threads=34 / lookahead_threads=5 / sliced_threads=0 / nr=150 / decimate=1 / interlaced=0 / bluray_compat=0 / constrained_intra=0 / bframes=8 / b_pyramid=2 / b_adapt=2 / b_bias=0 / direct=3 / weightb=1 / open_gop=0 / weightp=2 / keyint=120 / keyint_min=61 / scenecut=0 / intra_refresh=0 / rc_lookahead=120 / rc=crf / mbtree=1 / crf=18.0 / qcomp=0.60 / qpmin=0 / qpmax=69 / qpstep=4 / vbv_maxrate=15000 / vbv_bufsize=31250 / crf_max=0.0 / nal_hrd=vbr / filler=0 / ip_ratio=1.40 / aq=3:1.00
  27. Default : Yes
  28. Forced : No
  29. Color range : Limited
  30. Color primaries : BT.709
  31. Transfer characteristics : BT.709
  32. Matrix coefficients : BT.709

  33. Audio
  34. ID : 2
  35. Format : E-AC-3
  36. Format/Info : Enhanced AC-3
  37. Commercial name : Dolby Digital Plus
  38. Codec ID : A_EAC3
  39. Duration : 1 h 23 min
  40. Bit rate mode : Constant
  41. Bit rate : 224 kb/s
  42. Channel(s) : 2 channels
  43. Channel layout : L R
  44. Sampling rate : 48.0 kHz
  45. Frame rate : 31.250 FPS (1536 SPF)
  46. Compression mode : Lossy
  47. Stream size : 133 MiB (2%)
  48. Language : English
  49. Service kind : Complete Main
  50. Default : Yes
  51. Forced : No
復制代碼









分享到:  QQ好友和群QQ好友和群
收藏收藏
VIP會員免費任意下載本站所有資源!---點擊開通
回復

使用道具 舉報

懶得打字嘛,點擊右側快捷回復 【右側內容,后臺自定義】
您需要登錄后才可以回帖 登錄 | 立即注冊

本版積分規則

QQ|Archiver|手機版|小黑屋| 中國高清網 |網站地圖

GMT+8, 2019-12-10 11:05 , Processed in 0.227269 second(s), 36 queries .

Powered by HDchina X3.4

Copyright 2017-2019©HDchina.All right reserved

返回頂部 聯系我們
9肖30码图2019