查看: 13|回復: 0
打印 上一主題 下一主題

[喜劇片] 富貴再三逼人 Its.A.Mad.Mad.Mad.World.III.1989.CHINESE.1080p.NF.WEBRip.DDP2.0.x264-monkee 3.32GB

[復制鏈接]

 成長值: 3410

級別:資源管理組

注冊時間
2017-10-20
最后登錄
2019-12-9
聽眾
1
收聽
0
主題
88361
藍光幣
69718 枚
貢獻
12723 點
跳轉到指定樓層
樓主
發表于 2019-11-15 21:53:58 | 只看該作者 |只看大圖 回帖獎勵 |倒序瀏覽 |閱讀模式


譯  名 富貴再三逼人 / It's a Mad, Mad, Mad World III
片  名 富貴再三逼人
年  代 1989
產  地 中國香港
類  別 喜劇 / 家庭
語  言 粵語
上映日期 1989-02-02(中國香港)
IMDb評分  5.9/10 from 100 users
IMDb鏈接  https://www.imdb.com/title/tt0097396
豆瓣評分 7.0/10 from 8659 users
豆瓣鏈接 https://movie.douban.com/subject/1482495/
片  長 90分鐘
導  演 冼杞然 Stephen Shin
編  劇 陳健忠 John Chan Kin-Chung / 彭濟材 Cha-Choi Pang
主  演 董驃 Bill Tung
       沈殿霞 Lydia Shum
       李麗珍 Loletta Lee


標  簽 喜劇 | 香港 | 香港電影 | 沈殿霞 | 董驃 | 1989 | 搞笑 | 家庭

簡  介  

  在加拿大領取了3千萬獎金的驃叔(董驃 飾)一家,回到了香港居住。從未見過這么多錢的一家人竟然決定從銀行取出了所有的現鈔。所謂財不可以露眼,他們這么高調的行為引起了劫匪的注意。劫匪搶走了他們所有現鈔,劫匪所開的車突然爆炸,鈔票也全部被燒毀。
  驃叔感嘆自己又變成了窮人。但他們的運氣還在,隨即他們發現領取款項的收據連同鈔票一起被燒掉了,銀行只能當作驃叔一家還沒有領取3千萬的巨款,讓他再次取款。
  他們又再一次成為了富人。真是時來運到,驃叔的女兒們同時在澳門贏得了300多萬的獎金。
  1. Video
  2. ID                                       : 1
  3. Format                                   : AVC
  4. Format/Info                              : Advanced Video Codec
  5. Format profile                           : [email protected]
  6. Format settings                          : CABAC / 4 Ref Frames
  7. Format settings, CABAC                   : Yes
  8. Format settings, Reference frames        : 4 frames
  9. Codec ID                                 : V_MPEG4/ISO/AVC
  10. Duration                                 : 1 h 35 min
  11. Bit rate mode                            : Variable
  12. Bit rate                                 : 4 854 kb/s
  13. Maximum bit rate                         : 20.0 Mb/s
  14. Width                                    : 1 920 pixels
  15. Height                                   : 1 080 pixels
  16. Display aspect ratio                     : 16:9
  17. Frame rate mode                          : Constant
  18. Frame rate                               : 23.976 (24000/1001) FPS
  19. Color space                              : YUV
  20. Chroma subsampling                       : 4:2:0
  21. Bit depth                                : 8 bits
  22. Scan type                                : Progressive
  23. Bits/(Pixel*Frame)                       : 0.098
  24. Stream size                              : 3.23 GiB (97%)
  25. Writing library                          : x264 core 148 r2715 7e75228
  26. Encoding settings                        : cabac=1 / ref=4 / deblock=1:0:0 / analyse=0x3:0x111 / me=umh / subme=10 / psy=1 / psy_rd=1.00:0.00 / mixed_ref=1 / me_range=120 / chroma_me=1 / trellis=2 / 8x8dct=1 / cqm=0 / deadzone=21,11 / fast_pskip=1 / chroma_qp_offset=-2 / threads=8 / lookahead_threads=2 / sliced_threads=0 / nr=0 / decimate=1 / interlaced=0 / bluray_compat=0 / stitchable=1 / constrained_intra=0 / bframes=16 / b_pyramid=2 / b_adapt=2 / b_bias=0 / direct=3 / weightb=1 / open_gop=0 / weightp=2 / keyint=240 / keyint_min=121 / scenecut=0 / intra_refresh=0 / rc_lookahead=240 / rc=crf / mbtree=1 / crf=16.0 / qcomp=0.50 / qpmin=6 / qpmax=51 / qpstep=4 / vbv_maxrate=20000 / vbv_bufsize=25000 / crf_max=0.0 / nal_hrd=vbr / filler=0 / ip_ratio=1.40 / aq=1:0.80
  27. Default                                  : Yes
  28. Forced                                   : No

  29. Audio
  30. ID                                       : 2
  31. Format                                   : E-AC-3
  32. Format/Info                              : Enhanced AC-3
  33. Commercial name                          : Dolby Digital Plus
  34. Codec ID                                 : A_EAC3
  35. Duration                                 : 1 h 35 min
  36. Bit rate mode                            : Constant
  37. Bit rate                                 : 128 kb/s
  38. Channel(s)                               : 2 channels
  39. Channel layout                           : L R
  40. Sampling rate                            : 48.0 kHz
  41. Frame rate                               : 31.250 FPS (1536 SPF)
  42. Compression mode                         : Lossy
  43. Stream size                              : 87.2 MiB (3%)
  44. Title                                    : Chinese
  45. Service kind                             : Complete Main
  46. Default                                  : Yes
  47. Forced                                   : No

  48. Text #1
  49. ID                                       : 3
  50. Format                                   : UTF-8
  51. Codec ID                                 : S_TEXT/UTF8
  52. Codec ID/Info                            : UTF-8 Plain Text
  53. Duration                                 : 1 h 34 min
  54. Bit rate                                 : 80 b/s
  55. Count of elements                        : 1648
  56. Stream size                              : 55.9 KiB (0%)
  57. Title                                    : English
  58. Language                                 : English
  59. Default                                  : No
  60. Forced                                   : No

  61. Text #2
  62. ID                                       : 4
  63. Format                                   : UTF-8
  64. Codec ID                                 : S_TEXT/UTF8
  65. Codec ID/Info                            : UTF-8 Plain Text
  66. Duration                                 : 1 h 34 min
  67. Bit rate                                 : 75 b/s
  68. Count of elements                        : 1719
  69. Stream size                              : 52.5 KiB (0%)
  70. Title                                    : Indonesian
  71. Language                                 : Indonesian
  72. Default                                  : No
  73. Forced                                   : No

  74. Text #3
  75. ID                                       : 5
  76. Format                                   : UTF-8
  77. Codec ID                                 : S_TEXT/UTF8
  78. Codec ID/Info                            : UTF-8 Plain Text
  79. Duration                                 : 1 h 34 min
  80. Bit rate                                 : 185 b/s
  81. Count of elements                        : 1720
  82. Stream size                              : 128 KiB (0%)
  83. Title                                    : Thai
  84. Language                                 : Thai
  85. Default                                  : No
  86. Forced                                   : No

  87. Text #4
  88. ID                                       : 6
  89. Format                                   : UTF-8
  90. Codec ID                                 : S_TEXT/UTF8
  91. Codec ID/Info                            : UTF-8 Plain Text
  92. Duration                                 : 1 h 34 min
  93. Bit rate                                 : 2 b/s
  94. Count of elements                        : 102
  95. Stream size                              : 1.99 KiB (0%)
  96. Title                                    : Off
  97. Default                                  : No
  98. Forced                                   : No
復制代碼









分享到:  QQ好友和群QQ好友和群
收藏收藏
VIP會員免費任意下載本站所有資源!---點擊開通
回復

使用道具 舉報

懶得打字嘛,點擊右側快捷回復 【右側內容,后臺自定義】
您需要登錄后才可以回帖 登錄 | 立即注冊

本版積分規則

QQ|Archiver|手機版|小黑屋| 中國高清網 |網站地圖

GMT+8, 2019-12-10 09:59 , Processed in 0.190508 second(s), 36 queries .

Powered by HDchina X3.4

Copyright 2017-2019©HDchina.All right reserved

返回頂部 聯系我們
9肖30码图2019