查看: 16|回復: 0
打印 上一主題 下一主題

[紀錄片] 想贏你有多少勝算/機會的科學 Tails.You.Win.The.Science.of.Chance.2012.1080p.AMZN.WEBRip.DDP2.0.x264-GLI 3.83GB

[復制鏈接]

 成長值: 3410

級別:資源管理組

注冊時間
2017-10-20
最后登錄
2019-12-9
聽眾
1
收聽
0
主題
88361
藍光幣
69732 枚
貢獻
12723 點
跳轉到指定樓層
樓主
發表于 2019-11-15 21:52:08 | 只看該作者 |只看大圖 回帖獎勵 |倒序瀏覽 |閱讀模式


譯  名 想贏,你有多少勝算 / 機會的科學
片  名 Tails  You Win:The Science of Chance
年  代 2012
產  地 英國
語  言 英語
上映日期 2012-10-18
IMDb評分  6.8/10 from 22 users
IMDb鏈接  https://www.imdb.com/title/tt2516874
豆瓣評分 7.5/10 from 62 users
豆瓣鏈接 https://movie.douban.com/subject/20268731/
主  演 David Spiegelhalter


標  簽 紀錄片 | BBC | 概率 | 數學 | 英國 | Documentary | 紀錄 | 2012

簡  介  

  劍橋大學數學家,公共風險,生物統計學家等,戴維·斯皮格霍爾特[David Spiegelhalter]教授解釋什么是機會,以及它在現實世界所扮演的角色。機會這門科學是數學的一個重要分支,它融合了機智和智慧,動畫模型,圖形演示,概率的奧秘等等,讓我們處理未來可能要發生的事情。你怎么能最大限度地活到100歲?為什么我們很多人會遇到那么多怪異的巧合呢?我該帶把傘嗎?這些都只是日常生活中碰到問題而已。
  1. Video
  2. ID                                       : 1
  3. Format                                   : AVC
  4. Format/Info                              : Advanced Video Codec
  5. Format profile                           : [email protected]
  6. Format settings                          : CABAC / 4 Ref Frames
  7. Format settings, CABAC                   : Yes
  8. Format settings, Reference frames        : 4 frames
  9. Codec ID                                 : V_MPEG4/ISO/AVC
  10. Duration                                 : 59 min 4 s
  11. Bit rate mode                            : Constant
  12. Bit rate                                 : 9 046 kb/s
  13. Nominal bit rate                         : 10 000 kb/s
  14. Width                                    : 1 920 pixels
  15. Height                                   : 1 080 pixels
  16. Display aspect ratio                     : 16:9
  17. Frame rate mode                          : Constant
  18. Frame rate                               : 25.000 FPS
  19. Color space                              : YUV
  20. Chroma subsampling                       : 4:2:0
  21. Bit depth                                : 8 bits
  22. Scan type                                : Progressive
  23. Bits/(Pixel*Frame)                       : 0.174
  24. Stream size                              : 3.73 GiB (98%)
  25. Default                                  : Yes
  26. Forced                                   : No
  27. Color range                              : Limited
  28. Color primaries                          : BT.709
  29. Transfer characteristics                 : BT.709
  30. Matrix coefficients                      : BT.709

  31. Audio
  32. ID                                       : 2
  33. Format                                   : E-AC-3
  34. Format/Info                              : Enhanced AC-3
  35. Commercial name                          : Dolby Digital Plus
  36. Codec ID                                 : A_EAC3
  37. Duration                                 : 59 min 4 s
  38. Bit rate mode                            : Constant
  39. Bit rate                                 : 224 kb/s
  40. Channel(s)                               : 2 channels
  41. Channel layout                           : L R
  42. Sampling rate                            : 48.0 kHz
  43. Frame rate                               : 31.250 FPS (1536 SPF)
  44. Compression mode                         : Lossy
  45. Stream size                              : 94.7 MiB (2%)
  46. Language                                 : English
  47. Service kind                             : Complete Main
  48. Default                                  : Yes
  49. Forced                                   : No

  50. Text
  51. ID                                       : 3
  52. Format                                   : UTF-8
  53. Codec ID                                 : S_TEXT/UTF8
  54. Codec ID/Info                            : UTF-8 Plain Text
  55. Duration                                 : 58 min 27 s
  56. Bit rate                                 : 96 b/s
  57. Count of elements                        : 1101
  58. Stream size                              : 41.3 KiB (0%)
  59. Title                                    : SDH
  60. Language                                 : English
  61. Default                                  : Yes
  62. Forced                                   : No
復制代碼









分享到:  QQ好友和群QQ好友和群
收藏收藏
VIP會員免費任意下載本站所有資源!---點擊開通
回復

使用道具 舉報

懶得打字嘛,點擊右側快捷回復 【右側內容,后臺自定義】
您需要登錄后才可以回帖 登錄 | 立即注冊

本版積分規則

QQ|Archiver|手機版|小黑屋| 中國高清網 |網站地圖

GMT+8, 2019-12-10 11:07 , Processed in 0.199281 second(s), 36 queries .

Powered by HDchina X3.4

Copyright 2017-2019©HDchina.All right reserved

返回頂部 聯系我們
9肖30码图2019