查看: 12|回復: 0
打印 上一主題 下一主題

[恐怖片] 亡靈藝術 Art.Of.The.Dead.2019.1080p.WEB-DL.DD5.1.H264-FGT 3.37GB

[復制鏈接]

 成長值: 3410

級別:資源管理組

注冊時間
2017-10-20
最后登錄
2019-12-9
聽眾
1
收聽
0
主題
88361
藍光幣
69720 枚
貢獻
12723 點
跳轉到指定樓層
樓主
發表于 2019-11-15 21:47:04 | 只看該作者 |只看大圖 回帖獎勵 |倒序瀏覽 |閱讀模式


譯  名 亡靈藝術
片  名 Art of the Dead
年  代 2018
產  地 美國
類  別 恐怖
語  言 英語
上映日期 2019-10-04(美國)
IMDb評分  6.2/10 from 330 users
IMDb鏈接  https://www.imdb.com/title/tt7612032
豆瓣評分 0/10 from 0 users
豆瓣鏈接 https://movie.douban.com/subject/30257411/
片  長 97分鐘
導  演 羅爾夫·坎尼斯基 Rolfe Kanefsky
編  劇 羅爾夫·坎尼斯基 Rolfe Kanefsky / Michael Mahal / Sonny Mahal
主  演 塔拉·雷德 Tara Reid
       理查德·格里克 Richard Grieco
       杰西卡·莫里斯 Jessica Morris
       Aaron Groben
       Scarlet Salem
       Mark Justice
       Alex Rinehart
       Lukas Hassel
       Lainee Rhodes
       Sergio Rizzuto
       Paul Gunn
       Hans Hernke
       Labrandon Shead
       Audrey Holland


標  簽 美國 | 恐怖 | 怪物 | 3M稀影基地論壇 | 3M稀影基地

簡  介  

  When Dylan Wilson purchases a collection of seven paintings to hang in his wealthy estate, he has no idea what horrors he has unleashed for himself, his wife; Gina, his college son; Louis, his teen-age daughter; Donna, and his two little kids. Only Father Mendale knows what evils lurk inside this deadly art and the history of Dorian Wilde; the artist who made a pact with dark forces when he created these paintings that represent the seven deadly sins. Now, anyone who comes in contact with these pictures are corrupted by Pride, Lust, Gluttony, Sloth, Greed, Envy, and Wrath. It's up to Father Mendale and Louis' girlfriend; Kim to save Dylan and his family before they are all destroyed by the Art of the Dead.
  1. Video
  2. ID                                       : 1
  3. Format                                   : AVC
  4. Format/Info                              : Advanced Video Codec
  5. Format profile                           : [email protected]
  6. Format settings                          : CABAC / 5 Ref Frames
  7. Format settings, CABAC                   : Yes
  8. Format settings, Reference frames        : 5 frames
  9. Codec ID                                 : V_MPEG4/ISO/AVC
  10. Duration                                 : 1 h 37 min
  11. Bit rate                                 : 4 579 kb/s
  12. Width                                    : 1 920 pixels
  13. Height                                   : 810 pixels
  14. Display aspect ratio                     : 2.40:1
  15. Frame rate mode                          : Constant
  16. Frame rate                               : 23.976 (23976/1000) FPS
  17. Color space                              : YUV
  18. Chroma subsampling                       : 4:2:0
  19. Bit depth                                : 8 bits
  20. Scan type                                : Progressive
  21. Bits/(Pixel*Frame)                       : 0.123
  22. Stream size                              : 3.11 GiB (92%)
  23. Title                                    : Art.Of.The.Dead.2019.1080p.WEB-DL.DD5.1.H264-FGT
  24. Language                                 : English
  25. Default                                  : Yes
  26. Forced                                   : No
  27. Color range                              : Limited
  28. Color primaries                          : BT.709
  29. Transfer characteristics                 : BT.709
  30. Matrix coefficients                      : BT.709

  31. Audio
  32. ID                                       : 2
  33. Format                                   : AC-3
  34. Format/Info                              : Audio Coding 3
  35. Commercial name                          : Dolby Digital
  36. Codec ID                                 : A_AC3
  37. Duration                                 : 1 h 37 min
  38. Bit rate mode                            : Constant
  39. Bit rate                                 : 384 kb/s
  40. Channel(s)                               : 6 channels
  41. Channel layout                           : L R C LFE Ls Rs
  42. Sampling rate                            : 48.0 kHz
  43. Frame rate                               : 31.250 FPS (1536 SPF)
  44. Bit depth                                : 16 bits
  45. Compression mode                         : Lossy
  46. Stream size                              : 267 MiB (8%)
  47. Title                                    : Art.Of.The.Dead.2019.1080p.WEB-DL.DD5.1.H264-FGT
  48. Language                                 : English
  49. Service kind                             : Complete Main
  50. Default                                  : Yes
  51. Forced                                   : No

  52. Menu
  53. 00:00:00.000                             : en:1
  54. 00:15:05.000                             : en:2
  55. 00:29:48.000                             : en:3
  56. 00:45:47.000                             : en:4
  57. 01:00:12.000                             : en:5
  58. 01:14:29.000                             : en:6
  59. 01:32:44.000                             : en:7
  60. 01:37:10.954                             : en:1
復制代碼









分享到:  QQ好友和群QQ好友和群
收藏收藏
VIP會員免費任意下載本站所有資源!---點擊開通
回復

使用道具 舉報

懶得打字嘛,點擊右側快捷回復 【右側內容,后臺自定義】
您需要登錄后才可以回帖 登錄 | 立即注冊

本版積分規則

QQ|Archiver|手機版|小黑屋| 中國高清網 |網站地圖

GMT+8, 2019-12-10 10:03 , Processed in 0.174855 second(s), 36 queries .

Powered by HDchina X3.4

Copyright 2017-2019©HDchina.All right reserved

返回頂部 聯系我們
9肖30码图2019