查看: 147|回復: 0
打印 上一主題 下一主題

[8bit.SDR] 阿波羅11號/阿波羅登月 Apollo.11.2019.DOCU.2160p.BluRay.x264.8bit.SDR.DTS-HD.MA.5.1-SWTYBLZ 46.54GB

[復制鏈接]

 成長值: 3410

級別:資源管理組

注冊時間
2017-10-20
最后登錄
2019-12-9
聽眾
1
收聽
0
主題
88361
藍光幣
69716 枚
貢獻
12723 點
跳轉到指定樓層
樓主
發表于 2019-11-15 21:19:39 | 只看該作者 |只看大圖 回帖獎勵 |倒序瀏覽 |閱讀模式


譯  名 阿波羅11號 / 阿波羅登月
片  名 Apollo 11
年  代 2019
產  地 美國
類  別 紀錄片
語  言 英語
上映日期 2019-01-24(圣丹斯電影節) / 2019-03-01(美國)
IMDb評分  8.4/10 from 3614 users
IMDb鏈接  http://www.imdb.com/title/tt8760684
豆瓣評分 8.8/10 from 947 users
豆瓣鏈接 https://movie.douban.com/subject/30390701/
片  長 90分鐘
導  演 托德·道格拉斯·米勒 Todd Douglas Miller
主  演 巴茲·奧德林 Buzz Aldrin
      瓊·安·阿徹 Joan Ann Archer
      珍妮特·阿姆斯特朗 Janet Armstrong
      尼爾·阿姆斯特朗 Neil Armstrong
      約翰尼·卡森 Johnny Carson
      克利福德·E·查爾斯沃思 Clifford E. Charlesworth
      邁克爾·柯林斯 Michael Collins
      沃爾特·克朗凱特 Walter Cronkite
      查爾斯·杜克 Charles Duke
      吉因·克蘭茲 Gene Kranz
      吉姆·洛威爾 Jim Lovell
      格林·倫尼 Glynn Lunney
      理查德·尼克松 Richard Nixon
      迪克·斯雷頓 Deke Slayton


標  簽 紀錄片 | 美國 | 2019 | 登月 | 歷史 | 阿波羅 | 科技 | IMAX

簡  介  

  這部93分鐘的紀錄片由Neon和CNN Film公司出品,采用了首次發現的65毫米大畫幅膠卷拍攝的影像資料和超過11,000小時的原始音頻資料,為人類歷史上最具標志性和歷史性的時刻展現全新的視角。 《阿波羅11號》用電影的方式講述了這一航天傳奇,”

  1. Video
  2. ID                                       : 1
  3. Format                                   : AVC
  4. Format/Info                              : Advanced Video Codec
  5. Format profile                           : [email protected]
  6. Format settings                          : CABAC / 5 Ref Frames
  7. Format settings, CABAC                   : Yes
  8. Format settings, Reference frames        : 5 frames
  9. Codec ID                                 : V_MPEG4/ISO/AVC
  10. Duration                                 : 1 h 32 min
  11. Bit rate                                 : 68.5 Mb/s
  12. Width                                    : 3 840 pixels
  13. Height                                   : 1 746 pixels
  14. Display aspect ratio                     : 2.2:1
  15. Frame rate mode                          : Constant
  16. Frame rate                               : 23.976 (24000/1001) FPS
  17. Color space                              : YUV
  18. Chroma subsampling                       : 4:2:0
  19. Bit depth                                : 8 bits
  20. Scan type                                : Progressive
  21. Bits/(Pixel*Frame)                       : 0.426
  22. Stream size                              : 44.4 GiB (96%)
  23. Title                                    : Apollo.11.2019.DOCU.2160p.BluRay.x264.8bit.SDR.DTS-HD.MA.5.1-SWTYBLZ
  24. Writing library                          : x264 core 157 r2935 545de2f
  25. Encoding settings                        : cabac=1 / ref=5 / deblock=1:-1:-1 / analyse=0x3:0x113 / me=umh / subme=10 / psy=1 / psy_rd=1.00:0.15 / mixed_ref=1 / me_range=48 / chroma_me=1 / trellis=2 / 8x8dct=1 / cqm=0 / deadzone=21,11 / fast_pskip=1 / chroma_qp_offset=-3 / threads=48 / lookahead_threads=4 / sliced_threads=0 / nr=0 / decimate=0 / interlaced=0 / bluray_compat=0 / constrained_intra=0 / bframes=3 / b_pyramid=2 / b_adapt=2 / b_bias=0 / direct=3 / weightb=1 / open_gop=0 / weightp=2 / keyint=250 / keyint_min=23 / scenecut=40 / intra_refresh=0 / rc_lookahead=50 / rc=crf / mbtree=1 / crf=18.0 / qcomp=0.60 / qpmin=0 / qpmax=69 / qpstep=4 / ip_ratio=1.40 / aq=1:1.00
  26. Default                                  : Yes
  27. Forced                                   : No

  28. Audio #1
  29. ID                                       : 2
  30. Format                                   : DTS XLL
  31. Format/Info                              : Digital Theater Systems
  32. Commercial name                          : DTS-HD Master Audio
  33. Codec ID                                 : A_DTS
  34. Duration                                 : 1 h 37 min
  35. Bit rate mode                            : Variable
  36. Bit rate                                 : 1 847 kb/s
  37. Channel(s)                               : 6 channels
  38. Channel layout                           : C L R Ls Rs LFE
  39. Sampling rate                            : 48.0 kHz
  40. Frame rate                               : 93.750 FPS (512 SPF)
  41. Bit depth                                : 16 bits
  42. Compression mode                         : Lossless
  43. Stream size                              : 1.26 GiB (3%)
  44. Title                                    : Apollo.11.2019.DOCU.2160p.BluRay.x264.8bit.SDR.DTS-HD.MA.5.1-SWTYBLZ
  45. Language                                 : English
  46. Default                                  : Yes
  47. Forced                                   : No

  48. Audio #2
  49. ID                                       : 3
  50. Format                                   : AC-3
  51. Format/Info                              : Audio Coding 3
  52. Commercial name                          : Dolby Digital
  53. Codec ID                                 : A_AC3
  54. Duration                                 : 1 h 37 min
  55. Bit rate mode                            : Constant
  56. Bit rate                                 : 640 kb/s
  57. Channel(s)                               : 6 channels
  58. Channel layout                           : L R C LFE Ls Rs
  59. Sampling rate                            : 48.0 kHz
  60. Frame rate                               : 31.250 FPS (1536 SPF)
  61. Bit depth                                : 16 bits
  62. Compression mode                         : Lossy
  63. Stream size                              : 448 MiB (1%)
  64. Title                                    : Apollo.11.2019.DOCU.2160p.BluRay.x264.8bit.SDR.DTS-HD.MA.5.1-SWTYBLZ
  65. Language                                 : English
  66. Service kind                             : Complete Main
  67. Default                                  : No
  68. Forced                                   : No

  69. Text #1
  70. ID                                       : 4
  71. Format                                   : UTF-8
  72. Codec ID                                 : S_TEXT/UTF8
  73. Codec ID/Info                            : UTF-8 Plain Text
  74. Duration                                 : 1 h 29 min
  75. Bit rate                                 : 88 b/s
  76. Count of elements                        : 1324
  77. Stream size                              : 58.6 KiB (0%)
  78. Title                                    : English-SRT
  79. Language                                 : English
  80. Default                                  : Yes
  81. Forced                                   : No

  82. Text #2
  83. ID                                       : 5
  84. Format                                   : UTF-8
  85. Codec ID                                 : S_TEXT/UTF8
  86. Codec ID/Info                            : UTF-8 Plain Text
  87. Duration                                 : 1 h 31 min
  88. Bit rate                                 : 89 b/s
  89. Count of elements                        : 1367
  90. Stream size                              : 59.4 KiB (0%)
  91. Title                                    : English-SDH-SRT
  92. Language                                 : English
  93. Default                                  : No
  94. Forced                                   : No

  95. Text #3
  96. ID                                       : 6
  97. Format                                   : PGS
  98. Muxing mode                              : zlib
  99. Codec ID                                 : S_HDMV/PGS
  100. Codec ID/Info                            : Picture based subtitle format used on BDs/HD-DVDs
  101. Duration                                 : 1 h 31 min
  102. Bit rate                                 : 68.7 kb/s
  103. Count of elements                        : 2738
  104. Stream size                              : 45.2 MiB (0%)
  105. Title                                    : English-PGS
  106. Language                                 : English
  107. Default                                  : No
  108. Forced                                   : No

  109. Menu
  110. 00:00:00.000                             : en:Chapter 01
  111. 00:07:16.352                             : en:Chapter 02
  112. 00:14:33.914                             : en:Chapter 03
  113. 00:22:30.098                             : en:Chapter 04
  114. 00:29:19.591                             : en:Chapter 05
  115. 00:35:45.059                             : en:Chapter 06
  116. 00:43:36.238                             : en:Chapter 07
  117. 00:52:15.715                             : en:Chapter 08
  118. 01:02:03.010                             : en:Chapter 09
  119. 01:12:37.478                             : en:Chapter 10
  120. 01:20:29.783                             : en:Chapter 11
  121. 01:29:31.199                             : en:Chapter 12
復制代碼









本帖隱藏的下載地址需要VIP會員才可瀏覽,您需要升級才可瀏覽,點擊這里升級VIP
分享到:  QQ好友和群QQ好友和群
收藏收藏
VIP會員免費任意下載本站所有資源!---點擊開通
回復

使用道具 舉報

懶得打字嘛,點擊右側快捷回復 【右側內容,后臺自定義】
您需要登錄后才可以回帖 登錄 | 立即注冊

本版積分規則

QQ|Archiver|手機版|小黑屋| 中國高清網 |網站地圖

GMT+8, 2019-12-10 09:56 , Processed in 0.515884 second(s), 36 queries .

Powered by HDchina X3.4

Copyright 2017-2019©HDchina.All right reserved

返回頂部 聯系我們
9肖30码图2019