查看: 150|回復: 2
打印 上一主題 下一主題

[10bit.SDR] 阿波羅11號/阿波羅登月 Apollo.11.2019.DOCU.2160p.BluRay.x265.10bit.SDR.DTS-HD.MA.5.1-SWTYBLZ 40.49GB

[復制鏈接]

 成長值: 3440

級別:資源管理組

注冊時間
2017-10-20
最后登錄
2019-12-12
聽眾
1
收聽
0
主題
88425
藍光幣
70519 枚
貢獻
12787 點
跳轉到指定樓層
樓主
發表于 2019-11-15 21:15:05 | 只看該作者 |只看大圖 回帖獎勵 |倒序瀏覽 |閱讀模式


譯  名 阿波羅11號 / 阿波羅登月
片  名 Apollo 11
年  代 2019
產  地 美國
類  別 紀錄片
語  言 英語
上映日期 2019-01-24(圣丹斯電影節) / 2019-03-01(美國)
IMDb評分  8.4/10 from 3614 users
IMDb鏈接  http://www.imdb.com/title/tt8760684
豆瓣評分 8.8/10 from 947 users
豆瓣鏈接 https://movie.douban.com/subject/30390701/
片  長 90分鐘
導  演 托德·道格拉斯·米勒 Todd Douglas Miller
主  演 巴茲·奧德林 Buzz Aldrin
      瓊·安·阿徹 Joan Ann Archer
      珍妮特·阿姆斯特朗 Janet Armstrong
      尼爾·阿姆斯特朗 Neil Armstrong
      約翰尼·卡森 Johnny Carson
      克利福德·E·查爾斯沃思 Clifford E. Charlesworth
      邁克爾·柯林斯 Michael Collins
      沃爾特·克朗凱特 Walter Cronkite
      查爾斯·杜克 Charles Duke
      吉因·克蘭茲 Gene Kranz
      吉姆·洛威爾 Jim Lovell
      格林·倫尼 Glynn Lunney
      理查德·尼克松 Richard Nixon
      迪克·斯雷頓 Deke Slayton


標  簽 紀錄片 | 美國 | 2019 | 登月 | 歷史 | 阿波羅 | 科技 | IMAX

簡  介  

  這部93分鐘的紀錄片由Neon和CNN Film公司出品,采用了首次發現的65毫米大畫幅膠卷拍攝的影像資料和超過11,000小時的原始音頻資料,為人類歷史上最具標志性和歷史性的時刻展現全新的視角。 《阿波羅11號》用電影的方式講述了這一航天傳奇,”

  1. Video
  2. ID                                       : 1
  3. Format                                   : HEVC
  4. Format/Info                              : High Efficiency Video Coding
  5. Format profile                           : Main [email protected]@High
  6. Codec ID                                 : V_MPEGH/ISO/HEVC
  7. Duration                                 : 1 h 32 min
  8. Bit rate                                 : 59.3 Mb/s
  9. Width                                    : 3 840 pixels
  10. Height                                   : 1 746 pixels
  11. Display aspect ratio                     : 2.2:1
  12. Frame rate mode                          : Constant
  13. Frame rate                               : 23.976 (24000/1001) FPS
  14. Color space                              : YUV
  15. Chroma subsampling                       : 4:2:0
  16. Bit depth                                : 10 bits
  17. Bits/(Pixel*Frame)                       : 0.369
  18. Stream size                              : 38.5 GiB (96%)
  19. Title                                    : Apollo.11.2019.DOCU.2160p.BluRay.x265.10bit.SDR.DTS-HD.MA.5.1-SWTYBLZ
  20. Writing library                          : x265 3.0ed72af837053:[Windows][GCC 8.2.0][64 bit] 10bit
  21. Encoding settings                        : cpuid=1111039 / frame-threads=16 / numa-pools=44,44 / wpp / no-pmode / no-pme / no-psnr / no-ssim / log-level=2 / input-csp=1 / input-res=3840x1746 / interlace=0 / total-frames=133641 / level-idc=51 / high-tier=1 / uhd-bd=0 / ref=3 / no-allow-non-conformance / repeat-headers / annexb / aud / hrd / info / hash=0 / no-temporal-layers / no-open-gop / min-keyint=1 / keyint=24 / gop-lookahead=0 / bframes=4 / b-adapt=2 / b-pyramid / bframe-bias=0 / rc-lookahead=25 / lookahead-slices=4 / scenecut=40 / radl=0 / no-splice / no-intra-refresh / ctu=64 / min-cu-size=8 / no-rect / no-amp / max-tu-size=32 / tu-inter-depth=1 / tu-intra-depth=1 / limit-tu=0 / rdoq-level=0 / dynamic-rd=0.00 / no-ssim-rd / signhide / no-tskip / nr-intra=0 / nr-inter=0 / no-constrained-intra / strong-intra-smoothing / max-merge=2 / limit-refs=3 / no-limit-modes / me=1 / subme=2 / merange=57 / temporal-mvp / weightp / no-weightb / no-analyze-src-pics / deblock=0:0 / no-sao / no-sao-non-deblock / rd=3 / no-early-skip / rskip / no-fast-intra / no-tskip-fast / no-cu-lossless / no-b-intra / no-splitrd-skip / rdpenalty=0 / psy-rd=2.00 / psy-rdoq=0.00 / no-rd-refine / no-lossless / cbqpoffs=0 / crqpoffs=0 / rc=crf / crf=16.0 / qcomp=0.60 / qpstep=4 / stats-write=0 / stats-read=0 / vbv-maxrate=160000 / vbv-bufsize=160000 / vbv-init=0.9 / crf-max=0.0 / crf-min=0.0 / ipratio=1.40 / pbratio=1.30 / aq-mode=1 / aq-strength=1.00 / cutree / zone-count=0 / no-strict-cbr / qg-size=32 / no-rc-grain / qpmax=69 / qpmin=0 / no-const-vbv / sar=1 / overscan=0 / videoformat=5 / range=0 / colorprim=2 / transfer=2 / colormatrix=2 / chromaloc=0 / display-window=0 / max-cll=0,0 / min-luma=0 / max-luma=1023 / log2-max-poc-lsb=8 / vui-timing-info / vui-hrd-info / slices=1 / opt-qp-pps / opt-ref-list-length-pps / no-multi-pass-opt-rps / scenecut-bias=0.05 / no-opt-cu-delta-qp / no-aq-motion / no-hdr / no-hdr-opt / no-dhdr10-opt / no-idr-recovery-sei / analysis-reuse-level=5 / scale-factor=0 / refine-intra=0 / refine-inter=0 / refine-mv=0 / refine-ctu-distortion=0 / no-limit-sao / ctu-info=0 / no-lowpass-dct / refine-analysis-type=0 / copy-pic=1 / max-ausize-factor=1.0 / no-dynamic-refine / no-single-sei / no-hevc-aq / qp-adaptation-range=1.00
  22. Language                                 : English
  23. Default                                  : Yes
  24. Forced                                   : No

  25. Audio #1
  26. ID                                       : 2
  27. Format                                   : DTS XLL
  28. Format/Info                              : Digital Theater Systems
  29. Commercial name                          : DTS-HD Master Audio
  30. Codec ID                                 : A_DTS
  31. Duration                                 : 1 h 37 min
  32. Bit rate mode                            : Variable
  33. Bit rate                                 : 1 847 kb/s
  34. Channel(s)                               : 6 channels
  35. Channel layout                           : C L R Ls Rs LFE
  36. Sampling rate                            : 48.0 kHz
  37. Frame rate                               : 93.750 FPS (512 SPF)
  38. Bit depth                                : 16 bits
  39. Compression mode                         : Lossless
  40. Stream size                              : 1.26 GiB (3%)
  41. Title                                    : Apollo.11.2019.DOCU.2160p.BluRay.x265.10bit.SDR.DTS-HD.MA.5.1-SWTYBLZ
  42. Language                                 : English
  43. Default                                  : Yes
  44. Forced                                   : No

  45. Audio #2
  46. ID                                       : 3
  47. Format                                   : AC-3
  48. Format/Info                              : Audio Coding 3
  49. Commercial name                          : Dolby Digital
  50. Codec ID                                 : A_AC3
  51. Duration                                 : 1 h 37 min
  52. Bit rate mode                            : Constant
  53. Bit rate                                 : 640 kb/s
  54. Channel(s)                               : 6 channels
  55. Channel layout                           : L R C LFE Ls Rs
  56. Sampling rate                            : 48.0 kHz
  57. Frame rate                               : 31.250 FPS (1536 SPF)
  58. Bit depth                                : 16 bits
  59. Compression mode                         : Lossy
  60. Stream size                              : 448 MiB (1%)
  61. Title                                    : Apollo.11.2019.DOCU.2160p.BluRay.x265.10bit.SDR.DTS-HD.MA.5.1-SWTYBLZ
  62. Language                                 : English
  63. Service kind                             : Complete Main
  64. Default                                  : No
  65. Forced                                   : No

  66. Text #1
  67. ID                                       : 4
  68. Format                                   : UTF-8
  69. Codec ID                                 : S_TEXT/UTF8
  70. Codec ID/Info                            : UTF-8 Plain Text
  71. Duration                                 : 1 h 29 min
  72. Bit rate                                 : 88 b/s
  73. Count of elements                        : 1324
  74. Stream size                              : 58.6 KiB (0%)
  75. Title                                    : English-SRT
  76. Language                                 : English
  77. Default                                  : Yes
  78. Forced                                   : No

  79. Text #2
  80. ID                                       : 5
  81. Format                                   : UTF-8
  82. Codec ID                                 : S_TEXT/UTF8
  83. Codec ID/Info                            : UTF-8 Plain Text
  84. Duration                                 : 1 h 31 min
  85. Bit rate                                 : 89 b/s
  86. Count of elements                        : 1367
  87. Stream size                              : 59.4 KiB (0%)
  88. Title                                    : English-SDH-SRT
  89. Language                                 : English
  90. Default                                  : No
  91. Forced                                   : No

  92. Text #3
  93. ID                                       : 6
  94. Format                                   : PGS
  95. Muxing mode                              : zlib
  96. Codec ID                                 : S_HDMV/PGS
  97. Codec ID/Info                            : Picture based subtitle format used on BDs/HD-DVDs
  98. Duration                                 : 1 h 31 min
  99. Bit rate                                 : 68.7 kb/s
  100. Count of elements                        : 2738
  101. Stream size                              : 45.2 MiB (0%)
  102. Title                                    : English-PGS
  103. Language                                 : English
  104. Default                                  : No
  105. Forced                                   : No

  106. Menu
  107. 00:00:00.000                             : en:Chapter 01
  108. 00:07:16.352                             : en:Chapter 02
  109. 00:14:33.914                             : en:Chapter 03
  110. 00:22:30.098                             : en:Chapter 04
  111. 00:29:19.591                             : en:Chapter 05
  112. 00:35:45.059                             : en:Chapter 06
  113. 00:43:36.238                             : en:Chapter 07
  114. 00:52:15.715                             : en:Chapter 08
  115. 01:02:03.010                             : en:Chapter 09
  116. 01:12:37.478                             : en:Chapter 10
  117. 01:20:29.783                             : en:Chapter 11
  118. 01:29:31.199                             : en:Chapter 12
復制代碼









本帖隱藏的下載地址需要VIP會員才可瀏覽,您需要升級才可瀏覽,點擊這里升級VIP
分享到:  QQ好友和群QQ好友和群
收藏收藏
VIP會員免費任意下載本站所有資源!---點擊開通
回復

使用道具 舉報

級別:初級觀眾 Lv.1

注冊時間
2019-11-18
最后登錄
2019-11-18
聽眾
0
收聽
0
主題
0
藍光幣
2 枚
貢獻
0 點
QQ
沙發
發表于 2019-11-18 10:37:03 | 只看該作者
支持!!!!!!
VIP會員免費任意下載本站所有資源!---點擊開通
回復

使用道具 舉報

級別:普通觀眾 Lv.2

注冊時間
2019-10-23
最后登錄
2019-12-12
聽眾
1
收聽
0
主題
0
藍光幣
16 枚
貢獻
0 點
板凳
發表于 2019-11-21 22:49:31 | 只看該作者

樓主太厲害了!樓主,電影應該很好看我覺得中國高清電影網真是個好地方!
VIP會員免費任意下載本站所有資源!---點擊開通
回復

使用道具 舉報

懶得打字嘛,點擊右側快捷回復 【右側內容,后臺自定義】
您需要登錄后才可以回帖 登錄 | 立即注冊

本版積分規則

QQ|Archiver|手機版|小黑屋| 中國高清網 |網站地圖

GMT+8, 2019-12-13 08:36 , Processed in 0.209552 second(s), 37 queries .

Powered by HDchina X3.4

Copyright 2017-2019©HDchina.All right reserved

返回頂部 聯系我們
9肖30码图2019