查看: 213|回復: 3
打印 上一主題 下一主題

[REMUX.HEVC] 阿波羅11號/阿波羅登月 Apollo.11.2019.DOCU.2160p.BluRay.REMUX.HEVC.DTS-HD.MA.5.1-FGT 53.23GB

[復制鏈接]

 成長值: 3440

級別:資源管理組

注冊時間
2017-10-20
最后登錄
2019-12-12
聽眾
1
收聽
0
主題
88425
藍光幣
70519 枚
貢獻
12787 點
跳轉到指定樓層
樓主
發表于 2019-11-11 23:05:43 | 只看該作者 |只看大圖 回帖獎勵 |倒序瀏覽 |閱讀模式


譯  名 阿波羅11號 / 阿波羅登月
片  名 Apollo 11
年  代 2019
產  地 美國
類  別 紀錄片
語  言 英語
上映日期 2019-01-24(圣丹斯電影節) / 2019-03-01(美國)
IMDb評分  8.4/10 from 3614 users
IMDb鏈接  http://www.imdb.com/title/tt8760684
豆瓣評分 8.8/10 from 947 users
豆瓣鏈接 https://movie.douban.com/subject/30390701/
片  長 90分鐘
導  演 托德·道格拉斯·米勒 Todd Douglas Miller
主  演 巴茲·奧德林 Buzz Aldrin
      瓊·安·阿徹 Joan Ann Archer
      珍妮特·阿姆斯特朗 Janet Armstrong
      尼爾·阿姆斯特朗 Neil Armstrong
      約翰尼·卡森 Johnny Carson
      克利福德·E·查爾斯沃思 Clifford E. Charlesworth
      邁克爾·柯林斯 Michael Collins
      沃爾特·克朗凱特 Walter Cronkite
      查爾斯·杜克 Charles Duke
      吉因·克蘭茲 Gene Kranz
      吉姆·洛威爾 Jim Lovell
      格林·倫尼 Glynn Lunney
      理查德·尼克松 Richard Nixon
      迪克·斯雷頓 Deke Slayton


標  簽 紀錄片 | 美國 | 2019 | 登月 | 歷史 | 阿波羅 | 科技 | IMAX

簡  介  

  這部93分鐘的紀錄片由Neon和CNN Film公司出品,采用了首次發現的65毫米大畫幅膠卷拍攝的影像資料和超過11,000小時的原始音頻資料,為人類歷史上最具標志性和歷史性的時刻展現全新的視角。 《阿波羅11號》用電影的方式講述了這一航天傳奇,”

  1. Video
  2. ID                                       : 1
  3. Format                                   : HEVC
  4. Format/Info                              : High Efficiency Video Coding
  5. Format profile                           : Main [email protected]@High
  6. HDR format                               : SMPTE ST 2086, HDR10 compatible
  7. Codec ID                                 : V_MPEGH/ISO/HEVC
  8. Duration                                 : 1 h 32 min
  9. Bit rate                                 : 79.0 Mb/s
  10. Width                                    : 3 840 pixels
  11. Height                                   : 2 160 pixels
  12. Display aspect ratio                     : 16:9
  13. Frame rate mode                          : Constant
  14. Frame rate                               : 23.976 (24000/1001) FPS
  15. Color space                              : YUV
  16. Chroma subsampling                       : 4:2:0 (Type 2)
  17. Bit depth                                : 10 bits
  18. Bits/(Pixel*Frame)                       : 0.397
  19. Stream size                              : 51.3 GiB (96%)
  20. Title                                    : Apollo.11.2019.DOCU.2160p.BluRay.REMUX.HEVC.DTS-HD.MA.5.1-FGT
  21. Writing library                          : ATEME Titan File 3.8.22 (4.8.22.4)      
  22. Language                                 : English
  23. Default                                  : No
  24. Forced                                   : No
  25. Color range                              : Limited
  26. Color primaries                          : BT.2020
  27. Transfer characteristics                 : PQ
  28. Matrix coefficients                      : BT.2020 non-constant
  29. Mastering display color primaries        : BT.2020
  30. Mastering display luminance              : min: 0.0050 cd/m2, max: 1000 cd/m2
  31. Maximum Content Light Level              : 1000 cd/m2
  32. Maximum Frame-Average Light Level        : 300 cd/m2

  33. Audio #1
  34. ID                                       : 2
  35. Format                                   : DTS XLL
  36. Format/Info                              : Digital Theater Systems
  37. Commercial name                          : DTS-HD Master Audio
  38. Codec ID                                 : A_DTS
  39. Duration                                 : 1 h 37 min
  40. Bit rate mode                            : Variable
  41. Bit rate                                 : 1 847 kb/s
  42. Channel(s)                               : 6 channels
  43. Channel layout                           : C L R Ls Rs LFE
  44. Sampling rate                            : 48.0 kHz
  45. Frame rate                               : 93.750 FPS (512 SPF)
  46. Bit depth                                : 16 bits
  47. Compression mode                         : Lossless
  48. Stream size                              : 1.26 GiB (2%)
  49. Title                                    : Apollo.11.2019.DOCU.2160p.BluRay.REMUX.HEVC.DTS-HD.MA.5.1-FGT
  50. Language                                 : English
  51. Default                                  : Yes
  52. Forced                                   : No

  53. Audio #2
  54. ID                                       : 3
  55. Format                                   : DTS XLL
  56. Format/Info                              : Digital Theater Systems
  57. Commercial name                          : DTS-HD Master Audio
  58. Codec ID                                 : A_DTS
  59. Duration                                 : 1 h 37 min
  60. Bit rate mode                            : Variable
  61. Bit rate                                 : 959 kb/s
  62. Channel(s)                               : 2 channels
  63. Channel layout                           : L R
  64. Sampling rate                            : 48.0 kHz
  65. Frame rate                               : 93.750 FPS (512 SPF)
  66. Bit depth                                : 16 bits
  67. Compression mode                         : Lossless
  68. Stream size                              : 671 MiB (1%)
  69. Title                                    : Apollo.11.2019.DOCU.2160p.BluRay.REMUX.HEVC.DTS-HD.MA.5.1-FGT
  70. Language                                 : English
  71. Default                                  : No
  72. Forced                                   : No

  73. Text #1
  74. ID                                       : 4
  75. Format                                   : UTF-8
  76. Codec ID                                 : S_TEXT/UTF8
  77. Codec ID/Info                            : UTF-8 Plain Text
  78. Duration                                 : 1 h 29 min
  79. Bit rate                                 : 88 b/s
  80. Count of elements                        : 1324
  81. Stream size                              : 58.6 KiB (0%)
  82. Title                                    : English-SRT
  83. Language                                 : English
  84. Default                                  : Yes
  85. Forced                                   : No

  86. Text #2
  87. ID                                       : 5
  88. Format                                   : UTF-8
  89. Codec ID                                 : S_TEXT/UTF8
  90. Codec ID/Info                            : UTF-8 Plain Text
  91. Duration                                 : 1 h 31 min
  92. Bit rate                                 : 89 b/s
  93. Count of elements                        : 1367
  94. Stream size                              : 59.4 KiB (0%)
  95. Title                                    : English-SDH-SRT
  96. Language                                 : English
  97. Default                                  : No
  98. Forced                                   : No

  99. Text #3
  100. ID                                       : 6
  101. Format                                   : PGS
  102. Muxing mode                              : zlib
  103. Codec ID                                 : S_HDMV/PGS
  104. Codec ID/Info                            : Picture based subtitle format used on BDs/HD-DVDs
  105. Duration                                 : 1 h 31 min
  106. Bit rate                                 : 68.7 kb/s
  107. Count of elements                        : 2738
  108. Stream size                              : 45.2 MiB (0%)
  109. Title                                    : English-PGS
  110. Language                                 : English
  111. Default                                  : No
  112. Forced                                   : No

  113. Menu
  114. 00:00:00.000                             : en:Chapter 01
  115. 00:07:16.352                             : en:Chapter 02
  116. 00:14:33.914                             : en:Chapter 03
  117. 00:22:30.098                             : en:Chapter 04
  118. 00:29:19.591                             : en:Chapter 05
  119. 00:35:45.059                             : en:Chapter 06
  120. 00:43:36.238                             : en:Chapter 07
  121. 00:52:15.715                             : en:Chapter 08
  122. 01:02:03.010                             : en:Chapter 09
  123. 01:12:37.478                             : en:Chapter 10
  124. 01:20:29.783                             : en:Chapter 11
  125. 01:29:31.199                             : en:Chapter 12
復制代碼









本帖隱藏的下載地址需要VIP會員才可瀏覽,您需要升級才可瀏覽,點擊這里升級VIP
分享到:  QQ好友和群QQ好友和群
收藏收藏
VIP會員免費任意下載本站所有資源!---點擊開通
回復

使用道具 舉報

級別:初級觀眾 Lv.1

注冊時間
2019-10-11
最后登錄
2019-11-12
聽眾
0
收聽
0
主題
0
藍光幣
4 枚
貢獻
0 點
沙發
發表于 2019-11-12 15:35:57 | 只看該作者

這個帖子不回對不起自己!我想我是一天也不能離開中國高清電影網
VIP會員免費任意下載本站所有資源!---點擊開通
回復

使用道具 舉報

級別:普通觀眾 Lv.2

注冊時間
2019-11-22
最后登錄
2019-12-11
聽眾
1
收聽
0
主題
0
藍光幣
3 枚
貢獻
0 點
板凳
發表于 2019-11-22 09:50:46 | 只看該作者

這東西我收了!謝謝樓主!中國高清電影網真好!
VIP會員免費任意下載本站所有資源!---點擊開通
回復

使用道具 舉報

級別:普通觀眾 Lv.2

注冊時間
2019-8-22
最后登錄
2019-12-12
聽眾
2
收聽
0
主題
0
藍光幣
48 枚
貢獻
0 點
地板
發表于 2019-11-22 11:22:40 | 只看該作者
樓主發貼辛苦了,謝謝樓主分享!我覺得中國高清電影網是注冊對了!
VIP會員免費任意下載本站所有資源!---點擊開通
回復

使用道具 舉報

懶得打字嘛,點擊右側快捷回復 【右側內容,后臺自定義】
您需要登錄后才可以回帖 登錄 | 立即注冊

本版積分規則

QQ|Archiver|手機版|小黑屋| 中國高清網 |網站地圖

GMT+8, 2019-12-13 08:36 , Processed in 0.203318 second(s), 36 queries .

Powered by HDchina X3.4

Copyright 2017-2019©HDchina.All right reserved

返回頂部 聯系我們
9肖30码图2019