查看: 449|回復: 3
打印 上一主題 下一主題

[2160p-WEB] 響尾蛇/響尾蛇之吻 Rattlesnake.2019.RERIP.2160p.NF.WEBRip.x265.10bit.HDR.DDP5.1.Atmos-iNTENSO 11.56GB

[復制鏈接]

 成長值: 3410

級別:資源管理組

注冊時間
2017-10-20
最后登錄
2019-12-9
聽眾
1
收聽
0
主題
88361
藍光幣
69720 枚
貢獻
12723 點
跳轉到指定樓層
樓主
發表于 2019-11-6 21:19:26 | 只看該作者 |只看大圖 回帖獎勵 |倒序瀏覽 |閱讀模式


譯  名 響尾蛇 / 響尾蛇之吻(港) / 蛇殺(臺)
片  名 Rattlesnake
年  代 2019
產  地 美國
類  別 劇情 / 懸疑 / 驚悚 / 恐怖
語  言 英語
上映日期 2019-10-25(美國)
IMDb鏈接  https://www.imdb.com/title/tt9257484
豆瓣評分 0/10 from 0 users
豆瓣鏈接 https://movie.douban.com/subject/33406812/
片  長 85分鐘
導  演 扎克·希爾迪奇 Zak Hilditch
編  劇 扎克·希爾迪奇 Zak Hilditch
主  演 卡門·艾喬戈 Carmen Ejogo
       西奧·羅西 Theo Rossi
       艾瑪·格林威爾 Emma Greenwell
       喬伊·雅各布森 Joy Jacobson
       大衛·佑 David Yow
       黛布瑞安娜·曼西尼 Debrianna Mansini
       斯蒂芬妮·希爾 Stephanie Hill
       曼尼·魯比奧 Manny Rubio
       布魯斯·戴維斯 Bruce Davis
       Richard Lippert
       Arianna Ortiz
       Emily Isabella Peck
       Catherine Haun
       Sean Dillingham
       Jenna Doolittle


標  簽 驚悚 | 美國 | 懸疑 | 美國電影 | 犯罪 | 卡門·艾喬戈 | 劇情 | 2019

簡  介  

  卡特里娜是一位單身母親,她帶著年幼的女兒克拉拉橫穿全國,準備開始新的生活。但是他們的車卻在一個渺無人煙的地方拋錨。在卡特里娜更換輪胎時,克拉拉從沙漠公路上走遠,并被一條有毒的響尾蛇咬傷。急于挽救女兒生命的卡特里娜接受了一位神秘女子的幫助。這名女子奇跡般治愈了克拉拉,但卻要求卡特里娜去殺掉一個陌生人作為抵償。為避免女兒在日落時再次身陷險境,卡特里娜必須盡快解決一個道德難題:誰應當活下來,誰又該死去?
  1. Video
  2. ID                                       : 1
  3. Format                                   : HEVC
  4. Format/Info                              : High Efficiency Video Coding
  5. Format profile                           : Main [email protected]@High
  6. HDR format                               : SMPTE ST 2086, HDR10 compatible
  7. Codec ID                                 : V_MPEGH/ISO/HEVC
  8. Duration                                 : 1 h 24 min
  9. Bit rate                                 : 18.5 Mb/s
  10. Width                                    : 3 840 pixels
  11. Height                                   : 1 600 pixels
  12. Display aspect ratio                     : 2.40:1
  13. Frame rate mode                          : Constant
  14. Frame rate                               : 23.976 (24000/1001) FPS
  15. Color space                              : YUV
  16. Chroma subsampling                       : 4:2:0 (Type 2)
  17. Bit depth                                : 10 bits
  18. Bits/(Pixel*Frame)                       : 0.125
  19. Stream size                              : 10.9 GiB (96%)
  20. Writing library                          : x265 3.0_Audcbec33bfb0f:[Windows][GCC 8.2.1][64 bit] 10bit
  21. Encoding settings                        : cpuid=1111039 / frame-threads=5 / numa-pools=32,32 / wpp / no-pmode / no-pme / no-psnr / no-ssim / log-level=2 / input-csp=1 / input-res=3840x1600 / interlace=0 / total-frames=122205 / level-idc=51 / high-tier=1 / uhd-bd=0 / ref=4 / no-allow-non-conformance / repeat-headers / annexb / no-aud / no-hrd / info / hash=0 / no-temporal-layers / open-gop / min-keyint=24 / keyint=240 / gop-lookahead=0 / bframes=11 / b-adapt=2 / b-pyramid / bframe-bias=0 / rc-lookahead=40 / lookahead-slices=4 / scenecut=40 / radl=0 / no-splice / no-intra-refresh / ctu=64 / min-cu-size=8 / rect / no-amp / max-tu-size=32 / tu-inter-depth=1 / tu-intra-depth=1 / limit-tu=0 / rdoq-level=2 / dynamic-rd=0.00 / no-ssim-rd / signhide / no-tskip / nr-intra=0 / nr-inter=0 / no-constrained-intra / no-strong-intra-smoothing / max-merge=3 / limit-refs=3 / limit-modes / me=2 / subme=6 / merange=57 / temporal-mvp / weightp / no-weightb / no-analyze-src-pics / deblock=-3:-3 / no-sao / no-sao-non-deblock / rd=4 / no-early-skip / no-rskip / no-fast-intra / no-tskip-fast / no-cu-lossless / no-b-intra / no-splitrd-skip / rdpenalty=0 / psy-rd=4.00 / psy-rdoq=10.00 / no-rd-refine / no-lossless / cbqpoffs=0 / crqpoffs=0 / rc=crf / crf=17.0 / qcomp=0.60 / qpstep=4 / stats-write=0 / stats-read=0 / vbv-maxrate=160000 / vbv-bufsize=160000 / vbv-init=0.9 / crf-max=0.0 / crf-min=0.0 / ipratio=1.25 / pbratio=1.20 / aq-mode=3 / aq-strength=0.70 / no-cutree / zone-count=0 / no-strict-cbr / qg-size=32 / rc-grain / qpmax=69 / qpmin=0 / no-const-vbv / sar=1 / overscan=0 / videoformat=5 / range=0 / colorprim=9 / transfer=16 / colormatrix=9 / chromaloc=1 / chromaloc-top=2 / chromaloc-bottom=2 / display-window=0 / master-display=G(13250,34500)B(7500,3000)R(34000,16000)WP(15635,16450)L(40000000,50) / max-cll=2423,335 / min-luma=0 / max-luma=1023 / log2-max-poc-lsb=8 / vui-timing-info / vui-hrd-info / slices=1 / no-opt-qp-pps / no-opt-ref-list-length-pps / no-multi-pass-opt-rps / scenecut-bias=0.05 / no-opt-cu-delta-qp / no-aq-motion / hdr / hdr-opt / no-dhdr10-opt / no-idr-recovery-sei / analysis-reuse-level=5 / scale-factor=0 / refine-intra=0 / refine-inter=0 / refine-mv=0 / refine-ctu-distortion=0 / no-limit-sao / ctu-info=0 / no-lowpass-dct / refine-analysis-type=0 / copy-pic=1 / max-ausize-factor=1.0 / no-dynamic-refine / no-single-sei / no-hevc-aq / qp-adaptation-range=1.00
  22. Default                                  : Yes
  23. Forced                                   : No
  24. Color range                              : Limited
  25. Color primaries                          : BT.2020
  26. Transfer characteristics                 : PQ
  27. Matrix coefficients                      : BT.2020 non-constant
  28. Mastering display color primaries        : Display P3
  29. Mastering display luminance              : min: 0.0050 cd/m2, max: 4000 cd/m2
  30. Maximum Content Light Level              : 2423 cd/m2
  31. Maximum Frame-Average Light Level        : 335 cd/m2

  32. Audio
  33. ID                                       : 2
  34. Format                                   : E-AC-3 JOC
  35. Format/Info                              : Enhanced AC-3 with Joint Object Coding
  36. Commercial name                          : Dolby Digital Plus with Dolby Atmos
  37. Codec ID                                 : A_EAC3
  38. Duration                                 : 1 h 25 min
  39. Bit rate mode                            : Constant
  40. Bit rate                                 : 768 kb/s
  41. Channel(s)                               : 6 channels
  42. Channel layout                           : L R C LFE Ls Rs
  43. Sampling rate                            : 48.0 kHz
  44. Frame rate                               : 31.250 FPS (1536 SPF)
  45. Compression mode                         : Lossy
  46. Delay relative to video                  : 306 ms
  47. Stream size                              : 471 MiB (4%)
  48. Title                                    : English
  49. Language                                 : English
  50. Service kind                             : Complete Main
  51. Default                                  : Yes
  52. Forced                                   : No
  53. Complexity index                         : 16
  54. Number of dynamic objects                : 15
  55. Bed channel count                        : 1 channel
  56. Bed channel configuration                : LFE

  57. Text
  58. ID                                       : 3
  59. Format                                   : UTF-8
  60. Codec ID                                 : S_TEXT/UTF8
  61. Codec ID/Info                            : UTF-8 Plain Text
  62. Duration                                 : 1 h 23 min
  63. Bit rate                                 : 37 b/s
  64. Count of elements                        : 832
  65. Stream size                              : 23.1 KiB (0%)
  66. Title                                    : English [SDH]
  67. Language                                 : English
  68. Default                                  : No
  69. Forced                                   : No
復制代碼









本帖隱藏的下載地址需要VIP會員才可瀏覽,您需要升級才可瀏覽,點擊這里升級VIP
分享到:  QQ好友和群QQ好友和群
收藏收藏
VIP會員免費任意下載本站所有資源!---點擊開通
回復

使用道具 舉報

 成長值: 6160

級別:尊貴的會員

注冊時間
2018-11-10
最后登錄
2019-12-10
聽眾
17
收聽
0
主題
0
藍光幣
1166 枚
貢獻
0 點
沙發
發表于 2019-11-12 17:03:48 | 只看該作者
不知道這部電影是否好看,有沒有看過的怎么樣
VIP會員免費任意下載本站所有資源!---點擊開通
回復

使用道具 舉報

級別:初級觀眾 Lv.1

注冊時間
2019-11-15
最后登錄
2019-11-15
聽眾
0
收聽
0
主題
0
藍光幣
5 枚
貢獻
0 點
QQ
板凳
發表于 2019-11-15 15:29:53 | 只看該作者

我看不錯噢 謝謝樓主!中國高清電影網越來越好!
VIP會員免費任意下載本站所有資源!---點擊開通
回復

使用道具 舉報

級別:普通觀眾 Lv.2

注冊時間
2019-11-13
最后登錄
2019-12-7
聽眾
1
收聽
0
主題
0
藍光幣
25 枚
貢獻
0 點
QQ
地板
發表于 2019-11-15 16:33:42 | 只看該作者
樓主發貼辛苦了,謝謝樓主分享!我覺得中國高清電影網是注冊對了!
VIP會員免費任意下載本站所有資源!---點擊開通
回復

使用道具 舉報

懶得打字嘛,點擊右側快捷回復 【右側內容,后臺自定義】
您需要登錄后才可以回帖 登錄 | 立即注冊

本版積分規則

QQ|Archiver|手機版|小黑屋| 中國高清網 |網站地圖

GMT+8, 2019-12-10 10:08 , Processed in 0.193276 second(s), 37 queries .

Powered by HDchina X3.4

Copyright 2017-2019©HDchina.All right reserved

返回頂部 聯系我們
9肖30码图2019