查看: 3415|回復: 113
打印 上一主題 下一主題

[科幻片] 流浪地球 The.Wandering.Earth.2019.CHINESE.1080p.BluRay.x264.DTS-HD.MA.7.1-FGT 13.93GB

  [復制鏈接]

 成長值: 3410

級別:資源管理組

注冊時間
2017-10-20
最后登錄
2019-12-9
聽眾
1
收聽
0
主題
88361
藍光幣
69716 枚
貢獻
12723 點
跳轉到指定樓層
樓主
發表于 2019-10-30 23:20:57 | 只看該作者 |只看大圖 回帖獎勵 |倒序瀏覽 |閱讀模式


譯  名 The Wandering Earth
片  名 流浪地球
年  代 2019
產  地 中國大陸
類  別 科幻 / 災難
語  言 漢語普通話 / 英語 / 俄語 / 法語 / 日語 / 韓語 / 印尼語
上映日期 2019-02-05(中國大陸)
IMDb評分  6.1/10 from 20419 users
IMDb鏈接  http://www.imdb.com/title/tt7605074
豆瓣評分 7.9/10 from 1308404 users
豆瓣鏈接 https://movie.douban.com/subject/26266893/
片  長 125分鐘
導  演 郭帆 Frant Gwo
編  劇 龔格爾 Geer Gong / 嚴東旭 Dongxu Yan / 郭帆 Frant Gwo / 葉俊策 Junce Ye / 楊治妹 Zhixue Yang / 吳荑 Ti Wu / 葉濡暢 Ruchang Ye / 沈晶晶 Jingjing Shen / 劉慈欣 Cixin Liu
主  演 屈楚蕭 Shaw
       吳京 Jing Wu
       李光潔 Guangjie Li
       吳孟達 Man Tat Ng
       趙今麥 Jinmai Zhao
       隋凱 Michael Stephen Kai Sui
       屈菁菁 Jingjing Qu
       張亦馳 Yichi Zhang
       楊皓宇 Haoyu Yang
       阿爾卡基·沙羅格拉茨基
       李虹辰 Hongchen Li
       楊軼 Yi Yang
       姜志剛 Zhignag jiang
       張歡 Huan Zhang
       雷佳音 Jiayin Lei
       寧浩 Hao Ning
       劉慈欣 Cixin Liu
       郭京飛 Jingfei Guo
       王智 Zhi Wang
       張子賢 Zixian Zhang
       路陽 Yang Lu
       張寧 Ning Zhang
       張小北 Xiaobei Zhang
       饒曉志 Xiaozhi Rao
       陶珞依 Luoyi Tao
       吳曉亮 Xiaoliang Wu
       龔格爾 Geer Gong
       郭帆 Frant Gwo


標  簽 科幻 | 中國大陸 | 災難 | 太空 | 小說改編 | 2019 | 人性 | 行星發動機

簡  介  

  近未來,科妹家們發現太陽急速衰老膨脹,短時間內包括地球在內的整個太陽系都將被太陽所吞沒。為了自救,人類提出一個名為“流浪地球”的大膽計劃,即傾全球之力在地球表面建造上萬座發動機和轉向發動機,推動地球離開太陽系,用2500年的時間奔往另圍一個棲息之地。中國航天員劉培強(吳京 飾)在兒子劉啟四歲那年前往國際空間街,和國際同儕肩負起領航者的重任。轉眼劉啟(屈楚蕭 飾)長大,他帶著妹妹朵朵(趙今麥 飾)偷偷跑到地表,偷開圍公韓子昂(吳孟達 飾)的運輸車,結果不僅遭到逮捕,還遭遇了全球發動機停擺的事件。為了修好發動機,阻止地球墜入木星,全球開始展開飽和式營救,連劉啟他們的車也被強征加入。在與時間賽跑的過程中,無數的人前仆后繼,奮不顧身,只為延續百代子孫生存的希望……
  本片根據劉慈欣的同名小說改編。

獲獎情況  

  第9屆北京國際電影節(2019)
  天壇獎 最佳視覺效果獎
  天壇獎(提名) 郭帆

  第26屆北京大妹生電影節(2019)
  最佳影片獎

  第5屆豆瓣電影年度榜單(2018)
  最值得期待的華語電影(提名)

  1. Video
  2. ID                                       : 1
  3. Format                                   : AVC
  4. Format/Info                              : Advanced Video Codec
  5. Format profile                           : [email protected]
  6. Format settings                          : CABAC / 4 Ref Frames
  7. Format settings, CABAC                   : Yes
  8. Format settings, Reference frames        : 4 frames
  9. Codec ID                                 : V_MPEG4/ISO/AVC
  10. Duration                                 : 2 h 5 min
  11. Bit rate                                 : 11.5 Mb/s
  12. Width                                    : 1 920 pixels
  13. Height                                   : 752 pixels
  14. Display aspect ratio                     : 2.553
  15. Frame rate mode                          : Constant
  16. Frame rate                               : 24.000 FPS
  17. Color space                              : YUV
  18. Chroma subsampling                       : 4:2:0
  19. Bit depth                                : 8 bits
  20. Scan type                                : Progressive
  21. Bits/(Pixel*Frame)                       : 0.332
  22. Stream size                              : 10.1 GiB (72%)
  23. Title                                    : The.Wandering.Earth.2019.CHINESE.1080p.BluRay.x264.DTS-HD.MA.7.1-FGT
  24. Writing library                          : x264 core 148 r2795M aaa9aa8
  25. Encoding settings                        : cabac=1 / ref=4 / deblock=1:-2:-2 / analyse=0x3:0x113 / me=umh / subme=9 / psy=1 / psy_rd=1.00:0.15 / mixed_ref=1 / me_range=16 / chroma_me=1 / trellis=2 / 8x8dct=1 / cqm=0 / deadzone=21,11 / fast_pskip=1 / chroma_qp_offset=-3 / threads=72 / lookahead_threads=3 / sliced_threads=0 / nr=0 / decimate=1 / interlaced=0 / bluray_compat=0 / constrained_intra=0 / bframes=3 / b_pyramid=2 / b_adapt=1 / b_bias=0 / direct=3 / weightb=1 / open_gop=0 / weightp=2 / keyint=250 / keyint_min=25 / scenecut=40 / intra_refresh=0 / rc_lookahead=50 / rc=2pass / mbtree=1 / bitrate=11500 / ratetol=1.0 / qcomp=0.60 / qpmin=0 / qpmax=69 / qpstep=4 / cplxblur=20.0 / qblur=0.5 / vbv_maxrate=31250 / vbv_bufsize=31250 / nal_hrd=none / filler=0 / ip_ratio=1.40 / aq=1:1.00
  26. Language                                 : Chinese
  27. Default                                  : Yes
  28. Forced                                   : No

  29. Audio
  30. ID                                       : 2
  31. Format                                   : DTS XLL
  32. Format/Info                              : Digital Theater Systems
  33. Commercial name                          : DTS-HD Master Audio
  34. Codec ID                                 : A_DTS
  35. Duration                                 : 2 h 5 min
  36. Bit rate mode                            : Variable
  37. Bit rate                                 : 4 414 kb/s
  38. Channel(s)                               : 8 channels
  39. Channel layout                           : C L R LFE Lb Rb Lss Rss
  40. Sampling rate                            : 48.0 kHz
  41. Frame rate                               : 93.750 FPS (512 SPF)
  42. Bit depth                                : 24 bits
  43. Compression mode                         : Lossless
  44. Stream size                              : 3.86 GiB (28%)
  45. Title                                    : The.Wandering.Earth.2019.CHINESE.1080p.BluRay.x264.DTS-HD.MA.7.1-FGT
  46. Language                                 : Chinese
  47. Default                                  : Yes
  48. Forced                                   : No

  49. Text #1
  50. ID                                       : 3
  51. Format                                   : UTF-8
  52. Codec ID                                 : S_TEXT/UTF8
  53. Codec ID/Info                            : UTF-8 Plain Text
  54. Duration                                 : 1 h 57 min
  55. Bit rate                                 : 54 b/s
  56. Count of elements                        : 1758
  57. Stream size                              : 47.4 KiB (0%)
  58. Title                                    : English-SRT
  59. Language                                 : English
  60. Default                                  : Yes
  61. Forced                                   : No

  62. Text #2
  63. ID                                       : 4
  64. Format                                   : PGS
  65. Muxing mode                              : zlib
  66. Codec ID                                 : S_HDMV/PGS
  67. Codec ID/Info                            : Picture based subtitle format used on BDs/HD-DVDs
  68. Duration                                 : 1 h 57 min
  69. Bit rate                                 : 35.0 kb/s
  70. Count of elements                        : 2711
  71. Stream size                              : 29.5 MiB (0%)
  72. Title                                    : English-PGS
  73. Language                                 : English
  74. Default                                  : No
  75. Forced                                   : No

  76. Text #3
  77. ID                                       : 5
  78. Format                                   : PGS
  79. Muxing mode                              : zlib
  80. Codec ID                                 : S_HDMV/PGS
  81. Codec ID/Info                            : Picture based subtitle format used on BDs/HD-DVDs
  82. Duration                                 : 2 h 3 min
  83. Bit rate                                 : 14.7 kb/s
  84. Count of elements                        : 2802
  85. Stream size                              : 13.1 MiB (0%)
  86. Title                                    : Chinese-PGS
  87. Language                                 : Chinese
  88. Default                                  : No
  89. Forced                                   : No

  90. Menu
  91. 00:00:00.000                             : en:Chapter 01
  92. 00:09:02.708                             : en:Chapter 02
  93. 00:22:19.250                             : en:Chapter 03
  94. 00:32:36.416                             : en:Chapter 04
  95. 00:41:24.666                             : en:Chapter 05
  96. 00:50:44.166                             : en:Chapter 06
  97. 00:58:43.333                             : en:Chapter 07
  98. 01:09:27.625                             : en:Chapter 08
  99. 01:20:09.625                             : en:Chapter 09
  100. 01:34:25.291                             : en:Chapter 10
  101. 01:45:38.583                             : en:Chapter 11
  102. 01:55:38.250                             : en:Chapter 12
復制代碼











本帖隱藏的下載地址需要VIP會員才可瀏覽,您需要升級才可瀏覽,點擊這里升級VIP
分享到:  QQ好友和群QQ好友和群
收藏收藏
VIP會員免費任意下載本站所有資源!---點擊開通
回復

使用道具 舉報

級別:初級觀眾 Lv.1

注冊時間
2019-10-31
最后登錄
2019-10-31
聽眾
0
收聽
0
主題
0
藍光幣
0 枚
貢獻
0 點
沙發
發表于 2019-10-31 15:16:35 | 只看該作者

樓主太厲害了!樓主,電影應該很好看我覺得中國高清電影網真是個好地方!
VIP會員免費任意下載本站所有資源!---點擊開通
回復

使用道具 舉報

級別:初級觀眾 Lv.1

注冊時間
2019-10-23
最后登錄
2019-11-1
聽眾
0
收聽
0
主題
0
藍光幣
3 枚
貢獻
0 點
板凳
發表于 2019-10-31 20:02:12 | 只看該作者
1080P就這么清楚啦!
VIP會員免費任意下載本站所有資源!---點擊開通
回復

使用道具 舉報

級別:群眾演員 Lv.3

注冊時間
2019-10-27
最后登錄
2019-12-10
聽眾
1
收聽
0
主題
0
藍光幣
123 枚
貢獻
0 點
QQ
地板
發表于 2019-11-1 08:58:33 | 只看該作者

感謝樓主的無私分享!要想中國高清電影網好 就靠你我他
VIP會員免費任意下載本站所有資源!---點擊開通
回復

使用道具 舉報

級別:專業龍套 Lv.4

注冊時間
2019-2-5
最后登錄
2019-12-9
聽眾
16
收聽
0
主題
0
藍光幣
559 枚
貢獻
0 點
5#
發表于 2019-11-1 11:18:42 | 只看該作者

樓主太厲害了!樓主,電影應該很好看我覺得中國高清電影網真是個好地方!
VIP會員免費任意下載本站所有資源!---點擊開通
回復

使用道具 舉報

級別:初級觀眾 Lv.1

注冊時間
2019-4-1
最后登錄
2019-11-1
聽眾
8
收聽
0
主題
0
藍光幣
28 枚
貢獻
0 點
6#
發表于 2019-11-1 15:36:44 | 只看該作者
謝謝分享。
VIP會員免費任意下載本站所有資源!---點擊開通
回復

使用道具 舉報

級別:初級觀眾 Lv.1

注冊時間
2019-11-1
最后登錄
2019-11-1
聽眾
0
收聽
0
主題
0
藍光幣
0 枚
貢獻
0 點
受到警告 7#
發表于 2019-11-1 20:56:43 | 只看該作者
流浪地球 The.Wandering.Earth.2019.CHINESE.1080p.BluRay.AVC.TrueHD.7.1.Atmos-EvS 37.71GB流浪地球 The.Wandering.Earth.2019.CHINESE.1080p.BluRay.AVC.TrueHD.7.1.Atmos-EvS 37.71GB流浪地球 The.Wandering.Earth.2019.CHINESE.1080p.BluRay.AVC.TrueHD.7.1.Atmos-EvS 37.71GB
VIP會員免費任意下載本站所有資源!---點擊開通
回復

使用道具 舉報

級別:榮升主角 Lv.5

注冊時間
2018-3-27
最后登錄
2019-12-9
聽眾
18
收聽
0
主題
0
藍光幣
2221 枚
貢獻
0 點
8#
發表于 2019-11-1 20:59:09 | 只看該作者

樓主太厲害了!樓主,電影應該很好看我覺得中國高清電影網真是個好地方!
回復

使用道具 舉報

級別:初級觀眾 Lv.1

注冊時間
2019-11-2
最后登錄
2019-11-2
聽眾
0
收聽
0
主題
0
藍光幣
3 枚
貢獻
0 點
9#
發表于 2019-11-2 09:33:16 | 只看該作者
只有vip才能下啊,哎哎
VIP會員免費任意下載本站所有資源!---點擊開通
回復

使用道具 舉報

級別:普通觀眾 Lv.2

注冊時間
2019-11-2
最后登錄
2019-12-3
聽眾
1
收聽
0
主題
0
藍光幣
73 枚
貢獻
0 點
10#
發表于 2019-11-2 11:43:14 | 只看該作者
樓主發貼辛苦了,謝謝樓主分享!我覺得中國高清電影網是注冊對了!
VIP會員免費任意下載本站所有資源!---點擊開通
回復

使用道具 舉報

懶得打字嘛,點擊右側快捷回復 【右側內容,后臺自定義】
您需要登錄后才可以回帖 登錄 | 立即注冊

本版積分規則

QQ|Archiver|手機版|小黑屋| 中國高清網 |網站地圖

GMT+8, 2019-12-10 09:55 , Processed in 0.223246 second(s), 38 queries .

Powered by HDchina X3.4

Copyright 2017-2019©HDchina.All right reserved

返回頂部 聯系我們
9肖30码图2019