你所知道的4K資源這里全部都有 4K電影 | 4K視頻 | 4K壁紙 | 4K MV 怎么播放4K視頻 | 4K電視演示片

教你玩轉4K私人與家庭影院存儲 NAS組裝 | 黑群輝 家庭/影院Nas論壇

4K家庭影院信號源與視頻設備知識 4K藍光高清播放機 - 那個品牌好? 4K投影機論壇 | 4K電視機論壇

手把手教你搭建屬于自己的家庭影院 4K家庭影院案例 | 家庭影院音頻 4K家庭影院論壇

查看: 168|回復: 1
打印 上一主題 下一主題

[REMUX.HEVC] 我們/我們·異 Us.2019.2160p.BluRay.REMUX.HEVC.DTS-HD.MA.TrueHD.7.1.Atmos-FGT 70.56GB

[復制鏈接]

 成長值: 1730

級別:資源管理組

注冊時間
2017-10-20
最后登錄
2019-7-1
聽眾
0
收聽
0
主題
79121
藍光幣
31321 枚
貢獻
3446 點
跳轉到指定樓層
樓主
發表于 2019-6-16 02:01:43 | 只看該作者 |只看大圖 回帖獎勵 |倒序瀏覽 |閱讀模式


譯  名 我們 / 我們·異(港)
片  名 Us
年  代 2019
產  地 美國
類  別 驚悚 / 恐怖
語  言 英語
上映日期 2019-03-08(西南偏南電影節) / 2019-03-22(美國)
IMDb評分  7.3/10 from 78180 users
IMDb鏈接  http://www.imdb.com/title/tt6857112
豆瓣評分 7.4/10 from 5341 users
豆瓣鏈接 https://movie.douban.com/subject/27053945/
片  長 116分鐘
導  演 喬丹·皮爾 Jordan Peele
編  劇 喬丹·皮爾 Jordan Peele
主  演 露皮塔·尼永奧 Lupita Nyong'o
      溫斯頓·杜克 Winston Duke
      伊麗莎白·莫斯 Elisabeth Moss
      蒂姆·海德克 Tim Heidecker
      莎哈迪·賴特·約瑟夫 Shahadi Wright Joseph
      伊萬·艾利克斯 Evan Alex
      葉海亞·阿卜杜勒-邁丁 Yahya Abdul-Mateen II
      安娜·迪奧普 Anna Diop
      卡莉·謝爾頓 Cali Sheldon
      諾爾·謝爾頓 Noelle Sheldon
      麥迪遜·柯里 Madison Curry
      納皮埃拉·格羅夫斯 Napiera Groves
      杜克·尼科爾森 Duke Nicholson
      納丹·哈靈頓 Nathan Harrington
      卡拉·海沃德 Kara Hayward


標  簽 恐怖 | 驚悚 | 懸疑 | 美國 | 2019 | 劇情 | 黑人 | 人性

簡  介  

  一對名為阿德萊德和蓋博的夫妻帶著孩子到海濱度假,這里曾經是阿萊德萊童年的娛樂場所。在海濱與泰勒一家玩了一天之后,阿德萊德愈發地無法從往昔的傷痛中走出,他越來越覺得自己的家庭將要發生災難。到了晚上,他們一家甚至看到有四個人手拉手在行車道上站立,似乎有更多詭異的事情等待著他們。

  1. Video #1
  2. ID                                       : 1
  3. Format                                   : HEVC
  4. Format/Info                              : High Efficiency Video Coding
  5. Commercial name                          : HDR10
  6. Format profile                           : Main <a href="/cdn-cgi/l/email-protection" class="__cf_email__" data-cfemail="eadbdaaaa6dfc4db">[email protected]</a>@High
  7. Codec ID                                 : V_MPEGH/ISO/HEVC
  8. Duration                                 : 1 h 56 min
  9. Bit rate                                 : 65.9 Mb/s
  10. Width                                    : 3 840 pixels
  11. Height                                   : 2 160 pixels
  12. Display aspect ratio                     : 16:9
  13. Frame rate mode                          : Constant
  14. Frame rate                               : 23.976 (24000/1001) FPS
  15. Color space                              : YUV
  16. Chroma subsampling                       : 4:2:0 (Type 2)
  17. Bit depth                                : 10 bits
  18. Bits/(Pixel*Frame)                       : 0.331
  19. Stream size                              : 53.6 GiB (76%)
  20. Title                                    : Us.2019.2160p.BluRay.REMUX.HEVC.DTS-HD.MA.TrueHD.7.1.Atmos-FGT
  21. Language                                 : English
  22. Default                                  : Yes
  23. Forced                                   : No
  24. Color range                              : Limited
  25. Color primaries                          : BT.2020
  26. Transfer characteristics                 : PQ
  27. Matrix coefficients                      : BT.2020 non-constant
  28. Mastering display color primaries        : Display P3
  29. Mastering display luminance              : min: 0.0010 cd/m2, max: 1000 cd/m2
  30. Maximum Content Light Level              : 968 cd/m2
  31. Maximum Frame-Average Light Level        : 840 cd/m2

  32. Video #2
  33. ID                                       : 2
  34. Format                                   : HEVC
  35. Format/Info                              : High Efficiency Video Coding
  36. Commercial name                          : HDR10
  37. Format profile                           : Main <a href="/cdn-cgi/l/email-protection" class="__cf_email__" data-cfemail="310001717d041f00">[email protected]</a>@High
  38. Codec ID                                 : V_MPEGH/ISO/HEVC
  39. Duration                                 : 1 h 56 min
  40. Bit rate                                 : 10.8 Mb/s
  41. Width                                    : 1 920 pixels
  42. Height                                   : 1 080 pixels
  43. Display aspect ratio                     : 16:9
  44. Frame rate mode                          : Constant
  45. Frame rate                               : 23.976 (24000/1001) FPS
  46. Color space                              : YUV
  47. Chroma subsampling                       : 4:2:0 (Type 2)
  48. Bit depth                                : 10 bits
  49. Bits/(Pixel*Frame)                       : 0.217
  50. Stream size                              : 8.77 GiB (12%)
  51. Title                                    : Us.2019.2160p.BluRay.REMUX.HEVC.DTS-HD.MA.TrueHD.7.1.Atmos-FGT
  52. Default                                  : No
  53. Forced                                   : No
  54. Color range                              : Limited
  55. Color primaries                          : BT.2020
  56. Transfer characteristics                 : PQ
  57. Matrix coefficients                      : BT.2020 non-constant
  58. Mastering display color primaries        : Display P3
  59. Mastering display luminance              : min: 0.0010 cd/m2, max: 1000 cd/m2

  60. Audio #1
  61. ID                                       : 3
  62. Format                                   : MLP FBA 16-ch
  63. Format/Info                              : Meridian Lossless Packing FBA with 16-channel presentation
  64. Commercial name                          : Dolby TrueHD with Dolby Atmos
  65. Codec ID                                 : A_TRUEHD
  66. Duration                                 : 1 h 56 min
  67. Bit rate mode                            : Variable
  68. Bit rate                                 : 3 177 kb/s
  69. Maximum bit rate                         : 4 872 kb/s
  70. Channel(s)                               : 8 channels
  71. Channel layout                           : L R C LFE Ls Rs Lb Rb
  72. Sampling rate                            : 48.0 kHz
  73. Frame rate                               : 1 200.000 FPS (40 SPF)
  74. Compression mode                         : Lossless
  75. Delay relative to video                  : 17 ms
  76. Stream size                              : 2.58 GiB (4%)
  77. Title                                    : Us.2019.2160p.BluRay.REMUX.HEVC.DTS-HD.MA.TrueHD.7.1.Atmos-FGT
  78. Language                                 : English
  79. Default                                  : Yes
  80. Forced                                   : No
  81. Number of dynamic objects                : 11
  82. Bed channel count                        : 1 channel
  83. Bed channel configuration                : LFE

  84. Audio #2
  85. ID                                       : 4
  86. Format                                   : DTS XLL
  87. Format/Info                              : Digital Theater Systems
  88. Commercial name                          : DTS-HD Master Audio
  89. Codec ID                                 : A_DTS
  90. Duration                                 : 1 h 56 min
  91. Bit rate mode                            : Variable
  92. Bit rate                                 : 3 912 kb/s
  93. Channel(s)                               : 8 channels
  94. Channel layout                           : C L R LFE Lb Rb Lss Rss
  95. Sampling rate                            : 48.0 kHz
  96. Frame rate                               : 93.750 FPS (512 SPF)
  97. Bit depth                                : 24 bits
  98. Compression mode                         : Lossless
  99. Stream size                              : 3.18 GiB (5%)
  100. Title                                    : Us.2019.2160p.BluRay.REMUX.HEVC.DTS-HD.MA.TrueHD.7.1.Atmos-FGT
  101. Language                                 : English
  102. Default                                  : No
  103. Forced                                   : No

  104. Audio #3
  105. ID                                       : 5
  106. Format                                   : AC-3
  107. Format/Info                              : Audio Coding 3
  108. Commercial name                          : Dolby Digital
  109. Codec ID                                 : A_AC3
  110. Duration                                 : 1 h 56 min
  111. Bit rate mode                            : Constant
  112. Bit rate                                 : 448 kb/s
  113. Channel(s)                               : 6 channels
  114. Channel layout                           : L R C LFE Ls Rs
  115. Sampling rate                            : 48.0 kHz
  116. Frame rate                               : 31.250 FPS (1536 SPF)
  117. Bit depth                                : 16 bits
  118. Compression mode                         : Lossy
  119. Stream size                              : 373 MiB (1%)
  120. Title                                    : Us.2019.2160p.BluRay.REMUX.HEVC.DTS-HD.MA.TrueHD.7.1.Atmos-FGT
  121. Language                                 : English
  122. Service kind                             : Complete Main
  123. Default                                  : No
  124. Forced                                   : No

  125. Audio #4
  126. ID                                       : 6
  127. Format                                   : E-AC-3
  128. Format/Info                              : Enhanced AC-3
  129. Commercial name                          : Dolby Digital Plus
  130. Format profile                           : Blu-ray Disc
  131. Codec ID                                 : A_EAC3
  132. Duration                                 : 1 h 56 min
  133. Bit rate mode                            : Constant
  134. Bit rate                                 : 768 kb/s
  135. Channel(s)                               : 8 channels
  136. Channel layout                           : L R C LFE Ls Rs Lb Rb
  137. Sampling rate                            : 48.0 kHz
  138. Frame rate                               : 31.250 FPS (1536 SPF)
  139. Compression mode                         : Lossy
  140. Stream size                              : 640 MiB (1%)
  141. Title                                    : Us.2019.2160p.BluRay.REMUX.HEVC.DTS-HD.MA.TrueHD.7.1.Atmos-FGT
  142. Language                                 : Spanish
  143. Service kind                             : Complete Main
  144. Default                                  : No
  145. Forced                                   : No

  146. Audio #5
  147. ID                                       : 7
  148. Format                                   : AC-3
  149. Format/Info                              : Audio Coding 3
  150. Commercial name                          : Dolby Digital
  151. Codec ID                                 : A_AC3
  152. Duration                                 : 1 h 56 min
  153. Bit rate mode                            : Constant
  154. Bit rate                                 : 448 kb/s
  155. Channel(s)                               : 6 channels
  156. Channel layout                           : L R C LFE Ls Rs
  157. Sampling rate                            : 48.0 kHz
  158. Frame rate                               : 31.250 FPS (1536 SPF)
  159. Bit depth                                : 16 bits
  160. Compression mode                         : Lossy
  161. Stream size                              : 373 MiB (1%)
  162. Title                                    : Us.2019.2160p.BluRay.REMUX.HEVC.DTS-HD.MA.TrueHD.7.1.Atmos-FGT
  163. Language                                 : Spanish
  164. Service kind                             : Complete Main
  165. Default                                  : No
  166. Forced                                   : No

  167. Audio #6
  168. ID                                       : 8
  169. Format                                   : E-AC-3
  170. Format/Info                              : Enhanced AC-3
  171. Commercial name                          : Dolby Digital Plus
  172. Format profile                           : Blu-ray Disc
  173. Codec ID                                 : A_EAC3
  174. Duration                                 : 1 h 56 min
  175. Bit rate mode                            : Constant
  176. Bit rate                                 : 768 kb/s
  177. Channel(s)                               : 8 channels
  178. Channel layout                           : L R C LFE Ls Rs Lb Rb
  179. Sampling rate                            : 48.0 kHz
  180. Frame rate                               : 31.250 FPS (1536 SPF)
  181. Compression mode                         : Lossy
  182. Stream size                              : 640 MiB (1%)
  183. Title                                    : Us.2019.2160p.BluRay.REMUX.HEVC.DTS-HD.MA.TrueHD.7.1.Atmos-FGT
  184. Language                                 : French
  185. Service kind                             : Complete Main
  186. Default                                  : No
  187. Forced                                   : No

  188. Audio #7
  189. ID                                       : 9
  190. Format                                   : AC-3
  191. Format/Info                              : Audio Coding 3
  192. Commercial name                          : Dolby Digital
  193. Codec ID                                 : A_AC3
  194. Duration                                 : 1 h 56 min
  195. Bit rate mode                            : Constant
  196. Bit rate                                 : 448 kb/s
  197. Channel(s)                               : 6 channels
  198. Channel layout                           : L R C LFE Ls Rs
  199. Sampling rate                            : 48.0 kHz
  200. Frame rate                               : 31.250 FPS (1536 SPF)
  201. Bit depth                                : 16 bits
  202. Compression mode                         : Lossy
  203. Stream size                              : 373 MiB (1%)
  204. Title                                    : Us.2019.2160p.BluRay.REMUX.HEVC.DTS-HD.MA.TrueHD.7.1.Atmos-FGT
  205. Language                                 : French
  206. Service kind                             : Complete Main
  207. Default                                  : No
  208. Forced                                   : No

  209. Text #1
  210. ID                                       : 10
  211. Format                                   : UTF-8
  212. Codec ID                                 : S_TEXT/UTF8
  213. Codec ID/Info                            : UTF-8 Plain Text
  214. Duration                                 : 1 h 52 min
  215. Bit rate                                 : 38 b/s
  216. Count of elements                        : 1065
  217. Stream size                              : 31.6 KiB (0%)
  218. Title                                    : English-SRT
  219. Language                                 : English
  220. Default                                  : Yes
  221. Forced                                   : No

  222. Text #2
  223. ID                                       : 11
  224. Format                                   : PGS
  225. Muxing mode                              : zlib
  226. Codec ID                                 : S_HDMV/PGS
  227. Codec ID/Info                            : Picture based subtitle format used on BDs/HD-DVDs
  228. Duration                                 : 1 h 53 min
  229. Bit rate                                 : 35.4 kb/s
  230. Count of elements                        : 2751
  231. Stream size                              : 28.8 MiB (0%)
  232. Title                                    : English-PGS
  233. Language                                 : English
  234. Default                                  : No
  235. Forced                                   : No

  236. Text #3
  237. ID                                       : 12
  238. Format                                   : PGS
  239. Muxing mode                              : zlib
  240. Codec ID                                 : S_HDMV/PGS
  241. Codec ID/Info                            : Picture based subtitle format used on BDs/HD-DVDs
  242. Duration                                 : 1 h 55 min
  243. Bit rate                                 : 25.2 kb/s
  244. Count of elements                        : 2100
  245. Stream size                              : 20.8 MiB (0%)
  246. Title                                    : Spanish-PGS
  247. Language                                 : Spanish
  248. Default                                  : No
  249. Forced                                   : No

  250. Text #4
  251. ID                                       : 13
  252. Format                                   : PGS
  253. Muxing mode                              : zlib
  254. Codec ID                                 : S_HDMV/PGS
  255. Codec ID/Info                            : Picture based subtitle format used on BDs/HD-DVDs
  256. Duration                                 : 1 h 55 min
  257. Bit rate                                 : 22.1 kb/s
  258. Count of elements                        : 1808
  259. Stream size                              : 18.3 MiB (0%)
  260. Title                                    : French-PGS
  261. Language                                 : French
  262. Default                                  : No
  263. Forced                                   : No

  264. Text #5
  265. ID                                       : 14
  266. Format                                   : PGS
  267. Muxing mode                              : zlib
  268. Codec ID                                 : S_HDMV/PGS
  269. Codec ID/Info                            : Picture based subtitle format used on BDs/HD-DVDs
  270. Duration                                 : 1 h 51 min
  271. Bit rate                                 : 278 b/s
  272. Count of elements                        : 24
  273. Stream size                              : 228 KiB (0%)
  274. Title                                    : Spanish-FORCED-PGS
  275. Language                                 : Spanish
  276. Default                                  : No
  277. Forced                                   : No

  278. Text #6
  279. ID                                       : 15
  280. Format                                   : PGS
  281. Muxing mode                              : zlib
  282. Codec ID                                 : S_HDMV/PGS
  283. Codec ID/Info                            : Picture based subtitle format used on BDs/HD-DVDs
  284. Duration                                 : 1 h 55 min
  285. Bit rate                                 : 409 b/s
  286. Count of elements                        : 28
  287. Stream size                              : 346 KiB (0%)
  288. Title                                    : French-FORCED-PGS
  289. Language                                 : French
  290. Default                                  : No
  291. Forced                                   : No

  292. Menu
  293. 00:00:00.000                             : en:Chapter 01
  294. 00:06:05.156                             : en:Chapter 02
  295. 00:11:25.351                             : en:Chapter 03
  296. 00:17:11.947                             : en:Chapter 04
  297. 00:23:24.653                             : en:Chapter 05
  298. 00:29:31.394                             : en:Chapter 06
  299. 00:36:07.790                             : en:Chapter 07
  300. 00:41:07.756                             : en:Chapter 08
  301. 00:48:08.302                             : en:Chapter 09
  302. 00:55:43.256                             : en:Chapter 10
  303. 01:03:00.318                             : en:Chapter 11
  304. 01:07:49.356                             : en:Chapter 12
  305. 01:14:24.918                             : en:Chapter 13
  306. 01:20:11.723                             : en:Chapter 14
  307. 01:25:25.954                             : en:Chapter 15
  308. 01:29:44.045                             : en:Chapter 16
  309. 01:35:21.674                             : en:Chapter 17
  310. 01:40:54.214                             : en:Chapter 18
  311. 01:47:36.908                             : en:Chapter 19
  312. 01:52:14.394                             : en:Chapter 20
復制代碼








本帖隱藏的下載地址需要VIP會員才可瀏覽,您需要升級才可瀏覽,點擊這里升級VIP

分享到:  QQ好友和群QQ好友和群
收藏收藏
回復

使用道具 舉報

級別:初級觀眾 Lv.1

注冊時間
2019-6-8
最后登錄
2019-6-23
聽眾
4
收聽
0
主題
0
藍光幣
9 枚
貢獻
0 點
沙發
發表于 2019-6-23 15:34:17 | 只看該作者
好看的電影,謝謝分享!
回復

使用道具 舉報

*滑动验证:
懶得打字嘛,點擊右側快捷回復 【右側內容,后臺自定義】
您需要登錄后才可以回帖 登錄 | 立即注冊

本版積分規則

QQ|Archiver|手機版|小黑屋| 中國高清網 |網站地圖

GMT+8, 2019-7-1 12:37 , Processed in 0.304884 second(s), 44 queries .

Powered by HDchina X3.4

Copyright 2017-2019©HDchina.All right reserved

返回頂部 聯系我們
9肖30码图2019