查看: 319|回復: 1
打印 上一主題 下一主題

[8bit.HDR] 速度與激情5 Fast.Five.2011.EXTENDED.REMASTERED.1080p.BluRay.x264.DTS-X.7.1-SWTYBLZ 16.32GB

[復制鏈接]

 成長值: 3440

級別:資源管理組

注冊時間
2017-10-20
最后登錄
2019-12-12
聽眾
1
收聽
0
主題
88425
藍光幣
70519 枚
貢獻
12787 點
跳轉到指定樓層
樓主
發表于 2019-6-6 11:29:09 | 只看該作者 |只看大圖 回帖獎勵 |倒序瀏覽 |閱讀模式


譯  名 速度與激情5 / Fast & Furious 2 / Fast Five: The IMAX Experience / 狂野時速5(港) / 玩命關頭5(臺)
片  名 Fast Five
年  代 2011
產  地 美國
類  別 動作 / 犯罪
語  言 英語 / 葡萄牙語 / 西班牙語 / 意大利語 / 法語
上映日期 2011-04-29(美國) / 2011-05-12(中國大陸)
IMDb評分  7.3/10 from 329622 users
IMDb鏈接  http://www.imdb.com/title/tt1596343
豆瓣評分 8.4/10 from 252284 users
豆瓣鏈接 https://movie.douban.com/subject/4286017/
片  長 130分鐘
導  演 林詣彬 Justin Lin
編  劇 克里斯·摩根 Chris Morgan / 蓋瑞·斯科特·湯普森 Gary Scott Thompson
主  演 范·迪塞爾 Vin Diesel
      保羅·沃克 Paul Walker
      喬丹娜·布魯斯特 Jordana Brewster
      泰瑞斯·吉布森 Tyrese Gibson
      盧達克里斯 Ludacris
      馬特·斯查爾茲 Matt Schulze
      姜成鎬 Sung Kang
      蓋爾·加朵 Gal Gadot
      特戈·卡爾德隆 Tego Calderon
      唐·奧馬爾 Don Omar
      喬昆姆·德·阿爾梅達 Joaquim de Almeida
      道恩·強森 Dwayne Johnson
      埃爾莎·帕塔奇 Elsa Pataky
      邁克爾·厄爾比 Michael Irby
      費爾南多·錢 Fernando Chien
      阿里米·巴爾拉德 Alimi Ballard
      約戈·康斯坦丁 Yorgo Constantine
      吉奧夫·米德 Geoff Meed
      Joseph Melendez
      馬克·希克斯 Mark Hicks
      Corey Michael Eubanks
      小路易斯·達·席爾瓦 Luis Da Silva Jr.
      肯特·紹克內克 Kent Shocknek
      莎倫泰 Sharon Tay
      埃萊娜·卡多納 Hélène Cardona
      Amanda Salinas
      Benjamin Easterday
      伊娃·門德斯 Eva Mendes
      杰瑞德·莫澤 Jared Moser
      米歇爾·羅德里格茲 Michelle Rodriguez
      布賴恩·泰斯特 Brian Tester
      伊萬·J·托雷斯·拉桑塔 Iván J. Torres Lasanta


標  簽 動作 | 美國 | 飆車 | 賽車 | 速度 | 犯罪 | 2011 | 暴力

簡  介  

  蟄伏2年之后,多米尼克(范?迪塞爾 Vin Diesel飾)與布萊恩(保羅?沃克 Paul Walker 飾)再度聯手把火車中的神秘豪車盜走,遭到了警察和黑幫分子的火線追殺。布萊恩和米亞(喬丹娜?布魯斯特 Jordana Brewster 飾)到里約尋找援兵,并與多米會和。為了尋找多米等人的下落,FBI王牌探員盧克(“巖石”道恩?強森 Dwayne Johnson飾)挺身而出,組成精英部隊,追查來到里約。他雇傭了喪夫的美麗女警艾蓮娜(埃爾莎?帕塔奇 Elsa Pataky 飾),一同尋找多米。與此同時,里約的地頭蛇也對這些不速之客開火。三股勢力開始相互纏斗。
期間,因米亞懷孕,布萊恩決定陪她一起逃亡,所以多米只得依靠昔日老友探尋新車的秘密。在羅曼、韓等人的幫助下,多米終于找到了這輛車的秘密——芯片,并由此揭開了其中隱藏的一個不可告人的計劃……

獲獎情況  

  第17屆美國評論家選擇電影獎(2012)
  最佳動作片(提名)

  第11屆鳳凰城影評人協會獎(2011)
  最佳特技表演(提名)

  第13屆美國青少年選擇獎(2011)
  最佳動作片
  最佳動作片男演員(提名) 范·迪塞爾 / 保羅·沃克
  最佳動作片女演員(提名) 喬丹娜·布魯斯特



  1. Video
  2. ID                                       : 1
  3. Format                                   : AVC
  4. Format/Info                              : Advanced Video Codec
  5. Format profile                           : <a href="/cdn-cgi/l/email-protection" class="__cf_email__" data-cfemail="7038191718303c445e41">[email protected]</a>
  6. Format settings                          : CABAC / 5 Ref Frames
  7. Format settings, CABAC                   : Yes
  8. Format settings, ReFrames                : 5 frames
  9. Codec ID                                 : V_MPEG4/ISO/AVC
  10. Duration                                 : 2 h 11 min
  11. Bit rate                                 : 13.6 Mb/s
  12. Width                                    : 1 920 pixels
  13. Height                                   : 816 pixels
  14. Display aspect ratio                     : 2.35:1
  15. Frame rate mode                          : Constant
  16. Frame rate                               : 23.976 (24000/1001) FPS
  17. Color space                              : YUV
  18. Chroma subsampling                       : 4:2:0
  19. Bit depth                                : 8 bits
  20. Scan type                                : Progressive
  21. Bits/(Pixel*Frame)                       : 0.362
  22. Stream size                              : 12.5 GiB (77%)
  23. Title                                    : Fast.Five.2011.EXTENDED.REMASTERED.1080p.BluRay.x264.DTS-X.7.1-SWTYBLZ
  24. Writing library                          : x264 core 157 r2935 545de2f
  25. Encoding settings                        : cabac=1 / ref=5 / deblock=1:-1:-1 / analyse=0x3:0x133 / me=umh / subme=10 / psy=1 / psy_rd=1.00:0.15 / mixed_ref=1 / me_range=48 / chroma_me=1 / trellis=2 / 8x8dct=1 / cqm=0 / deadzone=21,11 / fast_pskip=1 / chroma_qp_offset=-3 / threads=25 / lookahead_threads=4 / sliced_threads=0 / nr=0 / decimate=0 / interlaced=0 / bluray_compat=0 / constrained_intra=0 / bframes=8 / b_pyramid=2 / b_adapt=2 / b_bias=0 / direct=3 / weightb=1 / open_gop=0 / weightp=2 / keyint=250 / keyint_min=23 / scenecut=40 / intra_refresh=0 / rc_lookahead=60 / rc=crf / mbtree=1 / crf=18.0 / qcomp=0.60 / qpmin=0 / qpmax=69 / qpstep=4 / ip_ratio=1.40 / aq=1:1.00
  26. Default                                  : Yes
  27. Forced                                   : No

  28. Audio
  29. ID                                       : 2
  30. Format                                   : DTS XLL X
  31. Format/Info                              : Digital Theater Systems
  32. Commercial name                          : DTS-HD Master Audio
  33. Codec ID                                 : A_DTS
  34. Duration                                 : 2 h 11 min
  35. Bit rate mode                            : Variable
  36. Bit rate                                 : 4 119 kb/s
  37. Channel(s)                               : 8 channels
  38. Channel(s)_Original                      : Object Based
  39. Channel layout                           : Object Based
  40. Sampling rate                            : 48.0 kHz
  41. Frame rate                               : 93.750 FPS (512 SPF)
  42. Bit depth                                : 24 bits
  43. Stream size                              : 3.79 GiB (23%)
  44. Title                                    : Fast.Five.2011.EXTENDED.REMASTERED.1080p.BluRay.x264.DTS-X.7.1-SWTYBLZ
  45. Language                                 : English
  46. Default                                  : Yes
  47. Forced                                   : No

  48. Text #1
  49. ID                                       : 3
  50. Format                                   : UTF-8
  51. Codec ID                                 : S_TEXT/UTF8
  52. Codec ID/Info                            : UTF-8 Plain Text
  53. Duration                                 : 2 h 4 min
  54. Bit rate                                 : 38 b/s
  55. Count of elements                        : 1147
  56. Stream size                              : 35.5 KiB (0%)
  57. Title                                    : English-SRT
  58. Language                                 : English
  59. Default                                  : Yes
  60. Forced                                   : No

  61. Text #2
  62. ID                                       : 4
  63. Format                                   : PGS
  64. Muxing mode                              : zlib
  65. Codec ID                                 : S_HDMV/PGS
  66. Codec ID/Info                            : Picture based subtitle format used on BDs/HD-DVDs
  67. Duration                                 : 2 h 4 min
  68. Bit rate                                 : 27.8 kb/s
  69. Count of elements                        : 2546
  70. Stream size                              : 24.8 MiB (0%)
  71. Title                                    : English-PGS
  72. Language                                 : English
  73. Default                                  : No
  74. Forced                                   : No

  75. Text #3
  76. ID                                       : 5
  77. Format                                   : PGS
  78. Muxing mode                              : zlib
  79. Codec ID                                 : S_HDMV/PGS
  80. Codec ID/Info                            : Picture based subtitle format used on BDs/HD-DVDs
  81. Duration                                 : 2 h 5 min
  82. Bit rate                                 : 27.2 kb/s
  83. Count of elements                        : 2536
  84. Stream size                              : 24.4 MiB (0%)
  85. Title                                    : French-PGS
  86. Language                                 : French
  87. Default                                  : No
  88. Forced                                   : No

  89. Text #4
  90. ID                                       : 6
  91. Format                                   : PGS
  92. Muxing mode                              : zlib
  93. Codec ID                                 : S_HDMV/PGS
  94. Codec ID/Info                            : Picture based subtitle format used on BDs/HD-DVDs
  95. Duration                                 : 2 h 5 min
  96. Bit rate                                 : 23.3 kb/s
  97. Count of elements                        : 2542
  98. Stream size                              : 20.9 MiB (0%)
  99. Title                                    : Spanish-PGS
  100. Language                                 : Spanish
  101. Default                                  : No
  102. Forced                                   : No

  103. Menu
  104. 00:00:00.000                             : en:Chapter 01
  105. 00:07:45.673                             : en:Chapter 02
  106. 00:17:29.423                             : en:Chapter 03
  107. 00:23:01.797                             : en:Chapter 04
  108. 00:28:21.533                             : en:Chapter 05
  109. 00:35:05.144                             : en:Chapter 06
  110. 00:40:55.661                             : en:Chapter 07
  111. 00:48:51.261                             : en:Chapter 08
  112. 00:55:29.993                             : en:Chapter 09
  113. 01:04:07.552                             : en:Chapter 10
  114. 01:11:41.964                             : en:Chapter 11
  115. 01:19:23.467                             : en:Chapter 12
  116. 01:23:33.800                             : en:Chapter 13
  117. 01:28:56.331                             : en:Chapter 14
  118. 01:32:57.154                             : en:Chapter 15
  119. 01:40:27.104                             : en:Chapter 16
  120. 01:48:14.488                             : en:Chapter 17
  121. 01:56:03.915                             : en:Chapter 18
  122. 02:00:29.013                             : en:Chapter 19
  123. 02:04:38.179                             : en:Chapter 20
復制代碼









本帖隱藏的下載地址需要VIP會員才可瀏覽,您需要升級才可瀏覽,點擊這里升級VIP

分享到:  QQ好友和群QQ好友和群
收藏收藏
VIP會員免費任意下載本站所有資源!---點擊開通
回復

使用道具 舉報

級別:初級觀眾 Lv.1

注冊時間
2018-10-15
最后登錄
2019-12-9
聽眾
9
收聽
0
主題
0
藍光幣
4 枚
貢獻
0 點
沙發
發表于 2019-11-15 10:55:32 | 只看該作者

樓主太厲害了!樓主,電影應該很好看我覺得中國高清電影網真是個好地方!
VIP會員免費任意下載本站所有資源!---點擊開通
回復

使用道具 舉報

懶得打字嘛,點擊右側快捷回復 【右側內容,后臺自定義】
您需要登錄后才可以回帖 登錄 | 立即注冊

本版積分規則

QQ|Archiver|手機版|小黑屋| 中國高清網 |網站地圖

GMT+8, 2019-12-13 08:52 , Processed in 0.206869 second(s), 37 queries .

Powered by HDchina X3.4

Copyright 2017-2019©HDchina.All right reserved

返回頂部 聯系我們
9肖30码图2019