查看: 419|回復: 2
打印 上一主題 下一主題

[REMUX.HEVC] 影/荊州保衛戰 Shadow.2018.CHINESE.2160p.BluRay.REMUX.HEVC.DTS-HD.MA.TrueHD.7.1.Atmos-FGT 56.68GB

[復制鏈接]

 成長值: 3440

級別:資源管理組

注冊時間
2017-10-20
最后登錄
2019-12-12
聽眾
1
收聽
0
主題
88425
藍光幣
70515 枚
貢獻
12787 點
跳轉到指定樓層
樓主
發表于 2019-5-22 11:36:13 | 只看該作者 |只看大圖 回帖獎勵 |倒序瀏覽 |閱讀模式

譯  名 Shadow / 三國·荊州 / 荊州保衛戰
片  名 影
年  代 2018
產  地 中國大陸 / 香港
類  別 劇情 / 行動 / 武俠 / 古裝
語  言 漢語普通話
上映日期 2018-09-06(威尼斯電影節) / 2018-09-30(中國大陸)
IMDb評分 7.1/10 from 1661 users
IMDb鏈接 http://www.imdb.com/title/tt6864046
豆瓣評分 7.2/10 from 364076 users
豆瓣鏈接 https://movie.douban.com/subject/4864908/
片  長 116分鐘
導  演 張藝謀 Yimou Zhang
編  劇 李威 Wei Li / 張藝謀 Yimou Zhang
主  演 鄧超 Chao Deng
      孫儷 Li Sun
      鄭愷 Kai Zheng
      王千源 Qianyuan Wang
      王景春 Jingchun Wang
      胡軍 Jun Hu
      關曉彤 Xiaotong Guan
      吳磊 Lei Wu
      封柏 Bai Feng



簡  介

  繚亂時勢,群敵環伺。一個從小被奧秘軟禁的替人,不甘只做他人手中的兵器;但若想打破桎梏,找回自我,又勢必歷經千難萬險的考驗;替人能否尋回安閑,他又該若何挑選?


獲獎情況

  第55屆臺北金馬影展(2018)
  金馬獎 最好劇情片(提名)
  金馬獎 最好導演 張藝謀
  金馬獎 最好男配角(提名) 鄧超
  金馬獎 最好女配角(提名) 孫儷
  金馬獎 最好改編劇本(提名) 李威 / 張藝謀
  金馬獎 最好攝影(提名) 趙小丁
  金馬獎 最好美術設想 馬名譽
  金馬獎 最好外型設想 陳敏正
  金馬獎 最好行動設想(提名) 谷軒昭
  金馬獎 最好原創配樂(提名) 撈仔
  金馬獎 最好音效(提名) 趙楠 / 楊江
  金馬獎 最好視覺功效 王星會

  第13屆亞洲電影大獎(2019)
  最好攝影(提名)
  最好剪接(提名)
  最好原創音樂(提名)
  最好美術指導(提名)
  最好外型設想(提名)
  最好聲響(提名)
  1. Video
  2. ID : 1
  3. Format : HEVC
  4. Format/Info : High Efficiency Video Coding
  5. Commercial name : HDR10
  6. Format profile : Main [email protected]@High
  7. Codec ID : V_MPEGH/ISO/HEVC
  8. Duration : 1 h 55 min
  9. Bit rate : 56.3 Mb/s
  10. Width : 3 840 pixels
  11. Height : 2 160 pixels
  12. Display aspect ratio : 16:9
  13. Frame rate mode : Constant
  14. Frame rate : 24.000 FPS
  15. Standard : Component
  16. Color space : YUV
  17. Chroma subsampling : 4:2:0 (Type 2)
  18. Bit depth : 10 bits
  19. Bits/(Pixel*Frame) : 0.283
  20. Stream size : 45.6 GiB (80%)
  21. Title : Shadow.2018.CHINESE.2160p.BluRay.REMUX.HEVC.DTS-HD.MA.TrueHD.7.1.Atmos-FGT
  22. Language : English
  23. Default : No
  24. Forced : No
  25. Color range : Limited
  26. Color primaries : BT.2020
  27. Transfer characteristics : PQ
  28. Matrix coefficients : BT.2020 non-constant
  29. Mastering display color primaries : BT.2020
  30. Mastering display luminance : min: 0.0000 cd/m2, max: 9000 cd/m2
  31. Maximum Content Light Level : 4570 cd/m2
  32. Maximum Frame-Average Light Level : 607 cd/m2

  33. Audio #1
  34. ID : 2
  35. Format : MLP FBA 16-ch
  36. Format/Info : Meridian Lossless Packing FBA with 16-channel presentation
  37. Commercial name : Dolby TrueHD with Dolby Atmos
  38. Codec ID : A_TRUEHD
  39. Duration : 1 h 55 min
  40. Bit rate mode : Variable
  41. Bit rate : 4 686 kb/s
  42. Maximum bit rate : 7 278 kb/s
  43. Channel(s) : 8 channels
  44. Channel layout : L R C LFE Ls Rs Lb Rb
  45. Sampling rate : 48.0 kHz
  46. Frame rate : 1 200.000 FPS (40 SPF)
  47. Compression mode : Lossless
  48. Stream size : 3.80 GiB (7%)
  49. Title : Shadow.2018.CHINESE.2160p.BluRay.REMUX.HEVC.DTS-HD.MA.TrueHD.7.1.Atmos-FGT
  50. Language : Chinese
  51. Default : Yes
  52. Forced : No
  53. Number of dynamic objects : 11
  54. Bed channel count : 1 channel
  55. Bed channel configuration : LFE

  56. Audio #2
  57. ID : 3
  58. Format : DTS XLL
  59. Format/Info : Digital Theater Systems
  60. Commercial name : DTS-HD Master Audio
  61. Codec ID : A_DTS
  62. Duration : 1 h 55 min
  63. Bit rate mode : Variable
  64. Bit rate : 4 732 kb/s
  65. Channel(s) : 8 channels
  66. Channel layout : C L R LFE Lb Rb Lss Rss
  67. Sampling rate : 48.0 kHz
  68. Frame rate : 93.750 FPS (512 SPF)
  69. Bit depth : 24 bits
  70. Compression mode : Lossless
  71. Stream size : 3.83 GiB (7%)
  72. Title : Shadow.2018.CHINESE.2160p.BluRay.REMUX.HEVC.DTS-HD.MA.TrueHD.7.1.Atmos-FGT
  73. Language : Chinese
  74. Default : No
  75. Forced : No

  76. Audio #3
  77. ID : 4
  78. Format : AC-3
  79. Format/Info : Audio Coding 3
  80. Commercial name : Dolby Digital
  81. Codec ID : A_AC3
  82. Duration : 1 h 55 min
  83. Bit rate mode : Constant
  84. Bit rate : 640 kb/s
  85. Channel(s) : 6 channels
  86. Channel layout : L R C LFE Ls Rs
  87. Sampling rate : 48.0 kHz
  88. Frame rate : 31.250 FPS (1536 SPF)
  89. Bit depth : 16 bits
  90. Compression mode : Lossy
  91. Stream size : 531 MiB (1%)
  92. Title : Shadow.2018.CHINESE.2160p.BluRay.REMUX.HEVC.DTS-HD.MA.TrueHD.7.1.Atmos-FGT
  93. Language : Chinese
  94. Service kind : Complete Main
  95. Default : No
  96. Forced : No

  97. Audio #4
  98. ID : 5
  99. Format : MLP FBA
  100. Format/Info : Meridian Lossless Packing FBA
  101. Commercial name : Dolby TrueHD
  102. Codec ID : A_TRUEHD
  103. Duration : 1 h 55 min
  104. Bit rate mode : Variable
  105. Bit rate : 2 840 kb/s
  106. Maximum bit rate : 5 616 kb/s
  107. Channel(s) : 6 channels
  108. Channel layout : L R C LFE Ls Rs
  109. Sampling rate : 96.0 kHz
  110. Frame rate : 1 200.000 FPS (80 SPF)
  111. Compression mode : Lossless
  112. Stream size : 2.30 GiB (4%)
  113. Title : Shadow.2018.CHINESE.2160p.BluRay.REMUX.HEVC.DTS-HD.MA.TrueHD.7.1.Atmos-FGT
  114. Language : Chinese
  115. Default : No
  116. Forced : No

  117. Audio #5
  118. ID : 6
  119. Format : AC-3
  120. Format/Info : Audio Coding 3
  121. Commercial name : Dolby Digital
  122. Codec ID : A_AC3
  123. Duration : 1 h 55 min
  124. Bit rate mode : Constant
  125. Bit rate : 640 kb/s
  126. Channel(s) : 6 channels
  127. Channel layout : L R C LFE Ls Rs
  128. Sampling rate : 48.0 kHz
  129. Frame rate : 31.250 FPS (1536 SPF)
  130. Bit depth : 16 bits
  131. Compression mode : Lossy
  132. Stream size : 531 MiB (1%)
  133. Title : Shadow.2018.CHINESE.2160p.BluRay.REMUX.HEVC.DTS-HD.MA.TrueHD.7.1.Atmos-FGT
  134. Language : Chinese
  135. Service kind : Complete Main
  136. Default : No
  137. Forced : No

  138. Text #1
  139. ID : 7
  140. Format : UTF-8
  141. Codec ID : S_TEXT/UTF8
  142. Codec ID/Info : UTF-8 Plain Text
  143. Duration : 1 h 44 min
  144. Bit rate : 28 b/s
  145. Count of elements : 1106
  146. Stream size : 21.8 KiB (0%)
  147. Title : English-SRT
  148. Language : English
  149. Default : Yes
  150. Forced : Yes

  151. Text #2
  152. ID : 8
  153. Format : PGS
  154. Muxing mode : zlib
  155. Codec ID : S_HDMV/PGS
  156. Codec ID/Info : Picture based subtitle format used on BDs/HD-DVDs
  157. Duration : 1 h 44 min
  158. Bit rate : 19.8 kb/s
  159. Count of elements : 2206
  160. Stream size : 14.8 MiB (0%)
  161. Title : Chinese-PGS
  162. Language : Chinese
  163. Default : No
  164. Forced : No

  165. Text #3
  166. ID : 9
  167. Format : PGS
  168. Muxing mode : zlib
  169. Codec ID : S_HDMV/PGS
  170. Codec ID/Info : Picture based subtitle format used on BDs/HD-DVDs
  171. Duration : 1 h 44 min
  172. Bit rate : 18.5 kb/s
  173. Count of elements : 2206
  174. Stream size : 13.9 MiB (0%)
  175. Title : Chinese-PGS
  176. Language : Chinese
  177. Default : No
  178. Forced : No

  179. Text #4
  180. ID : 10
  181. Format : PGS
  182. Muxing mode : zlib
  183. Codec ID : S_HDMV/PGS
  184. Codec ID/Info : Picture based subtitle format used on BDs/HD-DVDs
  185. Duration : 1 h 44 min
  186. Bit rate : 22.7 kb/s
  187. Count of elements : 2206
  188. Stream size : 17.0 MiB (0%)
  189. Title : English-PGS
  190. Language : English
  191. Default : No
  192. Forced : No

  193. Menu
  194. 00:00:00.000 : en:Chapter 01
  195. 00:12:37.541 : en:Chapter 02
  196. 00:24:52.750 : en:Chapter 03
  197. 00:32:30.708 : en:Chapter 04
  198. 00:41:19.666 : en:Chapter 05
  199. 00:50:24.833 : en:Chapter 06
  200. 01:05:11.583 : en:Chapter 07
  201. 01:18:52.333 : en:Chapter 08
  202. 01:23:47.083 : en:Chapter 09
  203. 01:27:02.916 : en:Chapter 10
  204. 01:33:11.541 : en:Chapter 11
  205. 01:47:58.500 : en:Chapter 12
復制代碼







本帖隱藏的下載地址需要VIP會員才可瀏覽,您需要升級才可瀏覽,點擊這里升級VIP


分享到:  QQ好友和群QQ好友和群
收藏收藏
VIP會員免費任意下載本站所有資源!---點擊開通
回復

使用道具 舉報

級別:初級觀眾 Lv.1

注冊時間
2019-11-7
最后登錄
2019-12-7
聽眾
1
收聽
0
主題
0
藍光幣
0 枚
貢獻
0 點
QQ
沙發
發表于 2019-11-7 21:32:27 | 只看該作者
好資源,流口水,還有網速嗎?
VIP會員免費任意下載本站所有資源!---點擊開通
回復

使用道具 舉報

 成長值: 3440

級別:資源管理組

注冊時間
2017-10-20
最后登錄
2019-12-12
聽眾
1
收聽
0
主題
88425
藍光幣
70515 枚
貢獻
12787 點
板凳
 樓主| 發表于 2019-11-7 22:21:51 | 只看該作者
xsen1979 發表于 2019-11-7 21:32
好資源,流口水,還有網速嗎?

必須有啊
VIP會員免費任意下載本站所有資源!---點擊開通
回復

使用道具 舉報

懶得打字嘛,點擊右側快捷回復 【右側內容,后臺自定義】
您需要登錄后才可以回帖 登錄 | 立即注冊

本版積分規則

QQ|Archiver|手機版|小黑屋| 中國高清網 |網站地圖

GMT+8, 2019-12-13 07:43 , Processed in 0.121140 second(s), 38 queries .

Powered by HDchina X3.4

Copyright 2017-2019©HDchina.All right reserved

返回頂部 聯系我們
9肖30码图2019