你所知道的4K資源這里全部都有 4K電影 | 4K視頻 | 4K壁紙 | 4K MV 怎么播放4K視頻 | 4K電視演示片

教你玩轉4K私人與家庭影院存儲 NAS組裝 | 黑群輝 家庭/影院Nas論壇

4K家庭影院信號源與視頻設備知識 4K藍光高清播放機 - 那個品牌好? 4K投影機論壇 | 4K電視機論壇

手把手教你搭建屬于自己的家庭影院 4K家庭影院案例 | 家庭影院音頻 4K家庭影院論壇

查看: 6752|回復: 73
打印 上一主題 下一主題

[劇情片] 金瓶梅2:愛的奴隸 The.Forbidden.Legend.Sex.And.Chopsticks.2.2009.1080p.BluRay.x264-aBD 7.94GB

  [復制鏈接]

 成長值: 1730

級別:資源管理組

注冊時間
2017-10-20
最后登錄
2019-7-1
聽眾
0
收聽
0
主題
79121
藍光幣
31321 枚
貢獻
3446 點
跳轉到指定樓層
樓主
發表于 2018-6-12 23:18:59 | 只看該作者 |只看大圖 回帖獎勵 |倒序瀏覽 |閱讀模式


◎譯  名 金瓶梅2:愛的奴隸/TheForbiddenLegend:Sex&Chopsticks2
◎片  名 金瓶梅Ⅱ愛的奴隸
◎年  代 2009
◎產  地 香港
◎類  別 劇情/喜劇/情色
◎語  言 粵語
◎上映日期 2009-03-05
◎IMDb評分4.7/10 from 311 users
◎IMDb鏈接https://www.imdb.com/title/tt1465840/
◎豆瓣評分 5.7/10 from 14,013 users
◎豆瓣鏈接 https://movie.douban.com/subject/3837495/
◎片  長 Hong Kong: 93 分鐘
◎導  演 錢文锜 Man Kei Chin
◎主  演 早川瀨里奈 Serina Hayakawa
      梁敏儀 Winnie Leung
      若菜光 Hikaru Wakana
      上原加繪羅 Kaera Uehara
      林偉健 Oscar Lam Wai-Kin
      譚干聰
      吳志雄 Chi Hung Ng

◎簡  介

  在設計害死武大郎(吳志雄 飾)后,西門慶(林偉健 飾)如愿以償的將潘金蓮(早川瀨里奈 飾)納入房中為妾,不僅如此,他還勾搭了良家婦女李瓶兒(上原加繪羅 飾),幾個人過上了有時一天兩次有時一天三次的性福生活。
  哥哥被害,悲憤的武松(吳慶哲 飾)決心要替兄報仇,沒想到,正直的他竟落入了西門慶設置的圈套之中。西門慶派自己的侍女春梅(梁敏儀 飾)勾引武松并誣陷他企圖強暴自己,就這樣,武松鋃鐺入獄,而春梅也憑此功績加入了西門慶的麾下,四人建立起了屬于他們的性愛王國。而春風得意的西門慶不知道的是,他正在一步一步的走向毀滅。


  1. Video
  2. ID             : 1
  3. Format           : AVC
  4. Format/Info          : Advanced Video Codec
  5. Format profile         : [email][email protected][/email]
  6. Format settings        : CABAC / 4 Ref Frames
  7. Format settings, CABAC       : Yes
  8. Format settings, ReFrames      : 4 frames
  9. Codec IM           : I5QAYOL9X6A8XZ
  10. Codec ID           : V_MPEG4/ISO/AVC
  11. Duration           : 1 h 32 min
  12. Bit rate           : 10.8 Mb/s
  13. Width            : 1 920 pixels
  14. Height           : 1 080 pixels
  15. Display aspect ratio       : 16:9
  16. Frame rate mode        : Constant
  17. Frame rate           : 24.000 FPS
  18. Color space          : YUV
  19. Chroma subsampling       : 4:2:0
  20. Bit depth          : 8 bits #32342
  21. Scan type          : Progressive
  22. Bits/(Pixel*Frame)       : 0.216
  23. Stream size          : 6.81 GiB (86%)
  24. Writing library        : x264 core 88 r1462 7fcffde
  25. Encoding settings        : cabac=1 / ref=4 / deblock=1:-1:-1 / analyse=0x3:0x113 / me=umh / subme=7 / psy=1 / psy_rd=1.00:0.00 / mixed_ref=1 / me_range=16 / chroma_me=1 / trellis=2 / 8x8dct=1 / cqm=0 / deadzone=21,11 / fast_pskip=1 / chroma_qp_offset=-2 / threads=12 / sliced_threads=0 / nr=0 / decimate=1 / mbaff=0 / constrained_intra=0 / bframes=3 / b_pyramid=2 / b_adapt=2 / b_bias=0 / direct=3 / wpredb=1 / wpredp=2 / keyint=250 / keyint_min=25 / scenecut=40 / intra_refresh=0 / rc_lookahead=40 / rc=2pass / mbtree=1 / bitrate=10766 / ratetol=1.0 / qcomp=0.60 / qpmin=10 / qpmax=51 / qpstep=4 / cplxblur=20.0 / qblur=0.5 / vbv_maxrate=50000 / vbv_bufsize=50000 / ip_ratio=1.40 / aq=1:1.00
  26. Language           : Chinese
  27. Default            : Yes
  28. Forced           : Yes

  29. Audio
  30. ID             : 2
  31. Format           : DTS
  32. Format/Info          : Digital Theater Systems
  33. Codec IM           : I5QAYOL9X6A8XZ
  34. Codec ID           : A_DTS
  35. Duration           : 1 h 32 min
  36. Bit rate mode          : Constant
  37. Bit rate           : 1 509 kb/s
  38. Channel(s)           : 6 channels
  39. Channel positions        : Front: L C R, Side: L R, LFE
  40. Sampling rate          : 48.0 kHz
  41. Frame rate           : 93.750 FPS (512 SPF)
  42. Bit depth          : 16 bits
  43. Compression mode         : Lossy
  44. Stream size          : 1 000 MiB (12%)
  45. Language           : Chinese
  46. Default            : Yes
  47. Forced           : Yes

  48. Text
  49. ID             : 3
  50. Format           : UTF-8
  51. Codec IM           : I5QAYOL9X6A8XZ
  52. Codec ID           : S_TEXT/UTF8
  53. Codec IM           : I5QAYOL9X6A8XZ
  54. Codec ID/Info          : UTF-8 Plain Text
  55. Language           : English
  56. Default            : Yes
  57. Forced           : No



復制代碼
復制代碼









本帖隱藏的下載地址需要VIP會員才可瀏覽,您需要升級才可瀏覽,點擊這里升級VIP

分享到:  QQ好友和群QQ好友和群
收藏收藏1
回復

使用道具 舉報

級別:榮升主角 Lv.5

注冊時間
2018-2-23
最后登錄
2019-7-1
聽眾
10
收聽
0
主題
0
藍光幣
1005 枚
貢獻
0 點
沙發
發表于 2018-6-13 08:14:04 | 只看該作者
g還有這樣的精彩版本,下來看看看,呵呵
回復

使用道具 舉報

級別:普通觀眾 Lv.2

注冊時間
2018-6-13
最后登錄
2018-11-18
聽眾
6
收聽
0
主題
0
藍光幣
12 枚
貢獻
0 點
板凳
發表于 2018-6-13 20:59:54 | 只看該作者
謝謝樓主,我很喜歡
回復

使用道具 舉報

級別:普通觀眾 Lv.2

注冊時間
2018-3-28
最后登錄
2019-5-1
聽眾
6
收聽
0
主題
0
藍光幣
3 枚
貢獻
0 點
QQ
地板
發表于 2018-6-13 22:00:19 | 只看該作者
港產的這些片沒什么劇情的
回復

使用道具 舉報

級別:普通觀眾 Lv.2

注冊時間
2018-6-13
最后登錄
2019-6-26
聽眾
6
收聽
0
主題
0
藍光幣
15 枚
貢獻
0 點
5#
發表于 2018-6-13 22:16:31 | 只看該作者

感謝樓主分享!!!
回復

使用道具 舉報

級別:初級觀眾 Lv.1

注冊時間
2018-6-13
最后登錄
2018-6-13
聽眾
6
收聽
0
主題
0
藍光幣
3 枚
貢獻
0 點
6#
發表于 2018-6-13 22:17:03 | 只看該作者
感謝樓主分享~~~~~~~~~
回復

使用道具 舉報

級別:初級觀眾 Lv.1

注冊時間
2018-6-13
最后登錄
2018-6-13
聽眾
6
收聽
0
主題
0
藍光幣
3 枚
貢獻
0 點
受到警告 7#
發表于 2018-6-13 22:17:35 | 只看該作者
感謝樓主分享~~~~~~~~~~~~~~~~
回復

使用道具 舉報

級別:普通觀眾 Lv.2

注冊時間
2018-3-1
最后登錄
2019-3-27
聽眾
7
收聽
0
主題
0
藍光幣
34 枚
貢獻
0 點
8#
發表于 2018-6-13 23:52:59 | 只看該作者
不錯不錯!!!感謝分享
回復

使用道具 舉報

級別:初級觀眾 Lv.1

注冊時間
2018-6-16
最后登錄
2019-4-21
聽眾
6
收聽
0
主題
0
藍光幣
0 枚
貢獻
0 點
9#
發表于 2018-6-16 01:28:10 | 只看該作者

謝謝分享
回復

使用道具 舉報

級別:普通觀眾 Lv.2

注冊時間
2018-6-9
最后登錄
2018-12-15
聽眾
6
收聽
0
主題
0
藍光幣
21 枚
貢獻
0 點
QQ
10#
發表于 2018-6-16 21:06:18 | 只看該作者
。。。。這神奇
回復

使用道具 舉報

*滑动验证:
懶得打字嘛,點擊右側快捷回復 【右側內容,后臺自定義】
您需要登錄后才可以回帖 登錄 | 立即注冊

本版積分規則

QQ|Archiver|手機版|小黑屋| 中國高清網 |網站地圖

GMT+8, 2019-7-1 12:37 , Processed in 0.192464 second(s), 45 queries .

Powered by HDchina X3.4

Copyright 2017-2019©HDchina.All right reserved

返回頂部 聯系我們
9肖30码图2019