查看: 788|回復: 3
打印 上一主題 下一主題

[REMUX.HEVC] 分歧者3:忠誠世界/赤誠者?末世醒覺 Allegiant.2016.2160p.BluRay.REMUX.HEVC.DTS-HD.MA.TrueHD.7.1.Atmos-FGT 57.24GB

[復制鏈接]

 成長值: 3440

級別:資源管理組

注冊時間
2017-10-20
最后登錄
2019-12-12
聽眾
1
收聽
0
主題
88425
藍光幣
70517 枚
貢獻
12787 點
跳轉到指定樓層
樓主
發表于 2017-12-15 21:47:11 | 只看該作者 |只看大圖 回帖獎勵 |倒序瀏覽 |閱讀模式

◎譯  名 分歧者3:忠誠世界/赤誠者?末世醒覺
◎片  名 The Divergent Series: Allegiant
◎年  代 2016
◎產  地 美國
◎類  別 動作/愛情/科幻/冒險
◎語  言 英語
◎上映日期 2016-03-08(曼谷首映)/2016-03-18(美國)/2016-05-20(中國大陸)
◎IMDb評分  5.7/10 from 79,000 users
◎IMDb鏈接  http://www.imdb.com/title/tt3410834/
◎豆瓣評分 5.7/10 from 25,737 users
◎豆瓣鏈接 https://movie.douban.com/subject/25794302/
◎片  長 121分鐘
◎導  演 羅伯特·斯文克  Robert Schwentke
◎主  演 謝琳·伍德蕾 Shailene Woodley
      提奧·詹姆斯 Theo James
      杰夫·丹尼爾斯 Jeff Daniels
      奧克塔維亞·斯賓瑟 Octavia Spencer
      雷·史蒂文森 Ray Stevenson
      佐伊·克羅維茲 Zo? Kravitz
      邁爾斯·特勒 Miles Teller
      安塞爾·艾爾高特 Ansel Elgort
      李美琪 Maggie Q
      比爾·斯卡斯加德 Bill Skarsg?rd
      娜奧米·沃茨 Naomi Watts
      約翰尼·韋斯頓 Jonny Weston
      考特尼·霍普 Courtney Hope

◎簡  介

  派系制度瓦解了,老四(提奧·詹姆斯 Theo James 飾)的母親伊芙琳(娜奧米·沃茨 Naomi Watts 飾)成為了墻內世界的統治者,她利用強悍而又嚴格的武裝力量控制墻內居民,不允許他們越雷池一步。可偏偏翠絲(謝琳·伍德蕾 Shailene Woodley 飾)和老四不信這個邪,他們堅信,未來和希望是屬于墻外世界的。
  于是,兩人帶領著克里斯蒂娜(佐伊·克拉維茲 Zoe Kravitz 飾)、皮特(邁爾斯·特勒 Miles Teller 飾)和托里(李美琪 Maggie Q 飾)等人突出重圍,終于來到了高墻的那一邊。在那一邊,基因局收留了翠絲一行人,表面看來基因局扮演的儼然是正義的一方,但實際上,其負責人大衛(杰夫·丹尼爾斯 Jeff Daniels 飾)懷揣著極大的野心,隱藏了一個驚人的秘密。


  1. Video
  2. ID                                       : 1
  3. Format                                   : HEVC
  4. Format/Info                              : High Efficiency Video Coding
  5. Format profile                           : Main [url=mailto:[email protected]][email protected][/url]@High
  6. Codec ID                                 : V_MPEGH/ISO/HEVC
  7. Duration                                 : 2 h 0 min
  8. Bit rate                                 : 58.0 Mb/s
  9. Width                                    : 3 840 pixels
  10. Height                                   : 2 160 pixels
  11. Display aspect ratio                     : 16:9
  12. Frame rate mode                          : Constant
  13. Frame rate                               : 23.976 (24000/1001) FPS
  14. Color space                              : YUV
  15. Chroma subsampling                       : 4:2:0 (Type 2)
  16. Bit depth                                : 10 bits
  17. Bits/(Pixel*Frame)                       : 0.292
  18. Stream size                              : 48.8GB (85%)
  19. Title                                    : Allegiant.2016.2160p.BluRay.REMUX.HEVC.DTS-HD.MA.TrueHD.7.1.Atmos-FGT
  20. Writing library                          : ATEME Titan KFE 3.7.3 (4.7.3.1003)
  21. Default                                  : Yes
  22. Forced                                   : No
  23. Color range                              : Limited
  24. Color primaries                          : BT.2020
  25. Transfer characteristics                 : PQ
  26. Matrix coefficients                      : BT.2020 non-constant
  27. Mastering display color primaries        : R: x=0.680000 y=0.320000, G: x=0.265000 y=0.690000, B: x=0.150000 y=0.060000, White point: x=0.312700 y=0.329000
  28. Mastering display luminance              : min: 0.0050 cd/m2, max: 4000.0000 cd/m2

  29. Audio #1
  30. ID                                       : 2
  31. Format                                   : TrueHD
  32. Format profile                           : TrueHD+Atmos / TrueHD
  33. Codec ID                                 : A_TRUEHD
  34. Duration                                 : 2 h 0 min
  35. Bit rate mode                            : Variable
  36. Bit rate                                 : 4 815 kb/s
  37. Maximum bit rate                         : 8 859 kb/s
  38. Channel(s)                               : Object Based / 8 channels
  39. Channel positions                        : Object Based / Front: L C R, Side: L R, Back: L R, LFE
  40. Sampling rate                            :  / 48.0 kHz
  41. Frame rate                               : 1 200.000 FPS (40 SPF)
  42. Compression mode                         : Lossless
  43. Delay relative to video                  : 32 ms
  44. Stream size                              : 4.05GB (7%)
  45. Title                                    : Allegiant.2016.2160p.BluRay.REMUX.HEVC.DTS-HD.MA.TrueHD.7.1.Atmos-FGT
  46. Language                                 : English
  47. Default                                  : Yes
  48. Forced                                   : No

  49. Audio #2
  50. ID                                       : 3
  51. Format                                   : DTS
  52. Format/Info                              : Digital Theater Systems
  53. Format profile                           : MA / Core
  54. Codec ID                                 : A_DTS
  55. Duration                                 : 2 h 0 min
  56. Bit rate mode                            : Variable / Constant
  57. Bit rate                                 : 3 526 kb/s / 1 509 kb/s
  58. Channel(s)                               : 8 channels / 6 channels
  59. Channel positions                        : Front: L C R, Side: L R, Back: L R, LFE / Front: L C R, Side: L R, LFE
  60. Sampling rate                            : 48.0 kHz
  61. Frame rate                               : 93.750 FPS (512 SPF)
  62. Bit depth                                : 24 bits
  63. Compression mode                         : Lossless / Lossy
  64. Stream size                              : 2.97GB (5%)
  65. Title                                    : Allegiant.2016.2160p.BluRay.REMUX.HEVC.DTS-HD.MA.TrueHD.7.1.Atmos-FGT
  66. Language                                 : English
  67. Default                                  : No
  68. Forced                                   : No

  69. Audio #3
  70. ID                                       : 4
  71. Format                                   : AC-3
  72. Format/Info                              : Audio Coding 3
  73. Codec ID                                 : A_AC3
  74. Duration                                 : 2 h 0 min
  75. Bit rate mode                            : Constant
  76. Bit rate                                 : 640 kb/s
  77. Channel(s)                               : 6 channels
  78. Channel positions                        : Front: L C R, Side: L R, LFE
  79. Sampling rate                            : 48.0 kHz
  80. Frame rate                               : 31.250 FPS (1536 SPF)
  81. Bit depth                                : 16 bits
  82. Compression mode                         : Lossy
  83. Delay relative to video                  : 31 ms
  84. Stream size                              : 552 MiB (1%)
  85. Title                                    : Allegiant.2016.2160p.BluRay.REMUX.HEVC.DTS-HD.MA.TrueHD.7.1.Atmos-FGT
  86. Language                                 : English
  87. Service kind                             : Complete Main
  88. Default                                  : No
  89. Forced                                   : No

  90. Audio #4
  91. ID                                       : 5
  92. Format                                   : AC-3
  93. Format/Info                              : Audio Coding 3
  94. Codec ID                                 : A_AC3
  95. Duration                                 : 2 h 0 min
  96. Bit rate mode                            : Constant
  97. Bit rate                                 : 640 kb/s
  98. Channel(s)                               : 6 channels
  99. Channel positions                        : Front: L C R, Side: L R, LFE
  100. Sampling rate                            : 48.0 kHz
  101. Frame rate                               : 31.250 FPS (1536 SPF)
  102. Bit depth                                : 16 bits
  103. Compression mode                         : Lossy
  104. Stream size                              : 552 MiB (1%)
  105. Title                                    : Allegiant.2016.2160p.BluRay.REMUX.HEVC.DTS-HD.MA.TrueHD.7.1.Atmos-FGT
  106. Language                                 : Spanish
  107. Service kind                             : Complete Main
  108. Default                                  : No
  109. Forced                                   : No

  110. Audio #5
  111. ID                                       : 6
  112. Format                                   : AC-3
  113. Format/Info                              : Audio Coding 3
  114. Codec ID                                 : A_AC3
  115. Duration                                 : 2 h 0 min
  116. Bit rate mode                            : Constant
  117. Bit rate                                 : 224 kb/s
  118. Channel(s)                               : 2 channels
  119. Channel positions                        : Front: L R
  120. Sampling rate                            : 48.0 kHz
  121. Frame rate                               : 31.250 FPS (1536 SPF)
  122. Bit depth                                : 16 bits
  123. Compression mode                         : Lossy
  124. Stream size                              : 193 MiB (0%)
  125. Title                                    : Allegiant.2016.2160p.BluRay.REMUX.HEVC.DTS-HD.MA.TrueHD.7.1.Atmos-FGT
  126. Language                                 : English
  127. Service kind                             : Complete Main
  128. Default                                  : No
  129. Forced                                   : No

  130. Text #1
  131. ID                                       : 7
  132. Format                                   : PGS
  133. Muxing mode                              : zlib
  134. Codec ID                                 : S_HDMV/PGS
  135. Codec ID/Info                            : Picture based subtitle format used on BDs/HD-DVDs
  136. Duration                                 : 1 h 48 min
  137. Bit rate                                 : 27.0 kb/s
  138. Count of elements                        : 2350
  139. Stream size                              : 21.0 MiB (0%)
  140. Title                                    : English-PGS
  141. Language                                 : English
  142. Default                                  : Yes
  143. Forced                                   : No

  144. Text #2
  145. ID                                       : 8
  146. Format                                   : PGS
  147. Muxing mode                              : zlib
  148. Codec ID                                 : S_HDMV/PGS
  149. Codec ID/Info                            : Picture based subtitle format used on BDs/HD-DVDs
  150. Duration                                 : 1 h 49 min
  151. Bit rate                                 : 30.2 kb/s
  152. Count of elements                        : 2626
  153. Stream size                              : 23.5 MiB (0%)
  154. Title                                    : English-SDH-PGS
  155. Language                                 : English
  156. Default                                  : No
  157. Forced                                   : No

  158. Text #3
  159. ID                                       : 9
  160. Format                                   : PGS
  161. Muxing mode                              : zlib
  162. Codec ID                                 : S_HDMV/PGS
  163. Codec ID/Info                            : Picture based subtitle format used on BDs/HD-DVDs
  164. Duration                                 : 1 h 59 min
  165. Bit rate                                 : 24.0 kb/s
  166. Count of elements                        : 2326
  167. Stream size                              : 20.6 MiB (0%)
  168. Title                                    : Spanish-PGS
  169. Language                                 : Spanish
  170. Default                                  : No
  171. Forced                                   : No

  172. Text #4
  173. ID                                       : 10
  174. Format                                   : PGS
  175. Muxing mode                              : zlib
  176. Codec ID                                 : S_HDMV/PGS
  177. Codec ID/Info                            : Picture based subtitle format used on BDs/HD-DVDs
  178. Duration                                 : 1 h 48 min
  179. Bit rate                                 : 27.0 kb/s
  180. Count of elements                        : 2350
  181. Stream size                              : 21.0 MiB (0%)
  182. Title                                    : English-PGS
  183. Language                                 : English
  184. Default                                  : No
  185. Forced                                   : No

  186. Text #5
  187. ID                                       : 11
  188. Format                                   : PGS
  189. Muxing mode                              : zlib
  190. Codec ID                                 : S_HDMV/PGS
  191. Codec ID/Info                            : Picture based subtitle format used on BDs/HD-DVDs
  192. Duration                                 : 1 h 49 min
  193. Bit rate                                 : 30.2 kb/s
  194. Count of elements                        : 2626
  195. Stream size                              : 23.5 MiB (0%)
  196. Title                                    : English-SDH-PGS
  197. Language                                 : English
  198. Default                                  : No
  199. Forced                                   : No

  200. Text #6
  201. ID                                       : 12
  202. Format                                   : PGS
  203. Muxing mode                              : zlib
  204. Codec ID                                 : S_HDMV/PGS
  205. Codec ID/Info                            : Picture based subtitle format used on BDs/HD-DVDs
  206. Duration                                 : 1 h 59 min
  207. Bit rate                                 : 24.0 kb/s
  208. Count of elements                        : 2326
  209. Stream size                              : 20.6 MiB (0%)
  210. Title                                    : Spanish-PGS
  211. Language                                 : Spanish
  212. Default                                  : No
  213. Forced                                   : No

  214. Menu
  215. 00:00:00.000                             : en:Chapter 1
  216. 00:09:46.335                             : en:Chapter 2
  217. 00:16:54.304                             : en:Chapter 3
  218. 00:25:52.092                             : en:Chapter 4
  219. 00:32:45.213                             : en:Chapter 5
  220. 00:37:26.202                             : en:Chapter 6
  221. 00:45:49.538                             : en:Chapter 7
  222. 00:53:31.458                             : en:Chapter 8
  223. 00:58:18.244                             : en:Chapter 9
  224. 01:07:21.162                             : en:Chapter 10
  225. 01:13:46.713                             : en:Chapter 11
  226. 01:19:51.036                             : en:Chapter 12
  227. 01:26:40.236                             : en:Chapter 13
  228. 01:33:12.128                             : en:Chapter 14
  229. 01:40:24.059                             : en:Chapter 15
  230. 01:46:18.872                             : en:Chapter 16



復制代碼
復制代碼


                                                                                                



[btshow=0]
本帖隱藏的下載地址需要VIP會員才可瀏覽,您需要升級才可瀏覽,點擊這里升級VIP
[/btshow]
分享到:  QQ好友和群QQ好友和群
收藏收藏
VIP會員免費任意下載本站所有資源!---點擊開通
回復

使用道具 舉報

級別:群眾演員 Lv.3

注冊時間
2019-10-22
最后登錄
2019-12-12
聽眾
1
收聽
0
主題
0
藍光幣
140 枚
貢獻
0 點
沙發
發表于 2019-11-9 11:15:39 | 只看該作者

樓主太厲害了!樓主,電影應該很好看我覺得中國高清電影網真是個好地方!
VIP會員免費任意下載本站所有資源!---點擊開通
回復

使用道具 舉報

級別:普通觀眾 Lv.2

注冊時間
2019-4-17
最后登錄
2019-12-11
聽眾
8
收聽
0
主題
0
藍光幣
61 枚
貢獻
0 點
板凳
發表于 2019-11-13 14:12:15 | 只看該作者

樓主太厲害了!樓主,電影應該很好看我覺得中國高清電影網真是個好地方!
VIP會員免費任意下載本站所有資源!---點擊開通
回復

使用道具 舉報

級別:群眾演員 Lv.3

注冊時間
2018-10-24
最后登錄
2019-12-9
聽眾
15
收聽
0
主題
0
藍光幣
87 枚
貢獻
0 點
地板
發表于 2019-11-16 13:13:49 | 只看該作者
樓主發貼辛苦了,謝謝樓主分享!我覺得中國高清電影網是注冊對了!
VIP會員免費任意下載本站所有資源!---點擊開通
回復

使用道具 舉報

懶得打字嘛,點擊右側快捷回復 【右側內容,后臺自定義】
您需要登錄后才可以回帖 登錄 | 立即注冊

本版積分規則

QQ|Archiver|手機版|小黑屋| 中國高清網 |網站地圖

GMT+8, 2019-12-13 08:17 , Processed in 0.140830 second(s), 36 queries .

Powered by HDchina X3.4

Copyright 2017-2019©HDchina.All right reserved

返回頂部 聯系我們
9肖30码图2019